img image001 image001 image001 image001 image001 image001 image001 image001 image001 image001 image001 image001 image001 image001 image001

Planets Sun Sun Sun
Статистика раздачи
Автор: PriZraK | Размер: 1.09 ГБ | Добавлен: 16 фев 2017
Раздают: 2    Качают: 2
Скачать торрент
Скачать торрент
Описание торрента

СообщениеДобавлено: 16 фев 2017 

Страна: СССР
Производство: Туркменфильм
Жанр: приключения, история
Год выпуска: 1957
Продолжительность: 01:29:15
Перевод: Не требуется
Cубтитры: нет
Оригинальная аудиодорожка: русский
Режиссер: Евгений Иванов-Барков, Алты Карлиев
В ролях:
Алты Карлиев, Павел Волков, Кулькиши Кульмурадов, Валентина Куценко, Сабира Атаева, Виктор Брежнев, Зоя Степанова, М. Кепбанов, П. Ильясов, Сергей Стеценко, А. Бяшимов, Ата Дурдыев, Аман Курбандурдыев, Павел Стрелин, Ходжоу Аннадурдыев, Назар Бекмиев, Абрам Каратов, Аман Кульмамедов...
Полный список актёров
Описание:
Действие происходит в Туркмении в годы гражданской войны. Алты Мергенов по особому заданию комдива проникает в штаб крупного контрреволюционного соединения, которым командует полковник Савицкий. Ещё до революции Мергенов служил офицером в полку Савицкого и пользовался уважением за свою храбрость. Штаб белых разместился в родном городе Алты. Его невеста, Наташа Лемчук, и друзья юности, с негодованием отворачиваются от "изменника". Правду знает только руководитель подполья рабочий Лемчук, отец Наташи, с которым Мергенов связался для передачи информации. Старая мать Алты становится случайной виновницей провала подпольщиков. Спастись удается только Наташе и ее отцу. Но потом Лемчук погибает в схватке с белыми. Выполнив задание, Мергенов уходит к партизанам...





Источник: VHS
Качество видео: VHSRip-AVC
Формат видео: MKV
Видео: 704->746x560 (4:3), 25,000 кадров/сек, H264 ~ 1553 kbps avg, 0.158 bit/pixel
Аудио: 48 kHz, Dolby Digital AC3 2.0, 192 kbps
Раздача от:
Общее
Полное имя : Osoboe.poruchenie.1957.VHSRip-AVC_[New-team]_by_AVP_Studio.mkv
Формат : Matroska
Версия формата : Version 2
Размер файла : 1,09 Гбайт
Продолжительность : 1 ч. 29 м.
Общий поток : 1747 Кбит/сек
Дата кодирования : UTC 2017-02-13 01:32:46
Программа кодирования : mkvmerge v6.1.0 ('Old Devil') built on Mar 4 2013 09:10:42
Библиотека кодирования : libebml v1.3.0 + libmatroska v1.4.0
Видео
Идентификатор : 1
Формат : AVC
Формат/Информация : Advanced Video Codec
Профиль формата : High@L4.1
Параметр CABAC формата : Да
Параметр ReFrames формата : 10 кадров
Идентификатор кодека : V_MPEG4/ISO/AVC
Продолжительность : 1 ч. 29 м.
Битрейт : 1553 Кбит/сек
Ширина : 704 пикселя
Высота : 560 пикселей
Соотношение сторон : 4:3
Режим частоты кадров : Постоянный
Частота кадров : 25,000 кадров/сек
Цветовое пространство : YUV
Субдискретизация насыщенности : 4:2:0
Битовая глубина : 8 бит
Тип развёртки : Прогрессивная
Бит/(Пиксели*Кадры) : 0.158
Размер потока : 970 Мбайт (87%)
Библиотека кодирования : x264 core 148 r2597 e86f3a1
Настройки программы : cabac=1 / ref=10 / deblock=1:-2:-1 / analyse=0x3:0x113 / me=umh / subme=10 / psy=1 / psy_rd=1.00:0.00 / mixed_ref=1 / me_range=32 / chroma_me=1 / trellis=2 / 8x8dct=1 / cqm=0 / deadzone=21,11 / fast_pskip=1 / chroma_qp_offset=-2 / threads=6 / lookahead_threads=1 / sliced_threads=0 / nr=0 / decimate=0 / interlaced=0 / bluray_compat=0 / constrained_intra=0 / bframes=8 / b_pyramid=2 / b_adapt=2 / b_bias=0 / direct=3 / weightb=1 / open_gop=0 / weightp=2 / keyint=250 / keyint_min=25 / scenecut=40 / intra_refresh=0 / rc=2pass / mbtree=0 / bitrate=1553 / ratetol=1.0 / qcomp=0.60 / qpmin=0 / qpmax=69 / qpstep=4 / cplxblur=20.0 / qblur=0.5 / ip_ratio=1.40 / pb_ratio=1.30 / aq=1:1.00
Default : Да
Forced : Нет
Аудио
Идентификатор : 2
Формат : AC-3
Формат/Информация : Audio Coding 3
Расширение режима : CM (complete main)
Параметр Endianness формата : Big
Идентификатор кодека : A_AC3
Продолжительность : 1 ч. 29 м.
Вид битрейта : Постоянный
Битрейт : 192 Кбит/сек
Каналы : 2 канала
Расположение каналов : Front: L R
Частота : 48,0 КГц
Частота кадров : 31,250 кадров/сек (1536 spf)
Битовая глубина : 16 бит
Метод сжатия : С потерями
Размер потока : 123 Мбайт (11%)
Default : Да
Forced : Нет





   Похожие торренты   Торрент   Размер 
В этой теме нет новых непрочитанных сообщений. Особое поручение (1957) VHSRip от New-Team

3 | 1

1.09 ГБ

В этой теме нет новых непрочитанных сообщений. Правда (1957) VHSRip от New-Team

7 | 0

1.09 ГБ

В этой теме нет новых непрочитанных сообщений. Правда (1957) VHSRip-AVC от New-Team

0 | 4

1.09 ГБ

В этой теме нет новых непрочитанных сообщений. Ласточка (1957) VHSRip от New-Team

0 | 0

1.09 ГБ

В этой теме нет новых непрочитанных сообщений. Ласточка (1957) VHSRip-AVC от New-Team

4 | 0

1.09 ГБ

В этой теме нет новых непрочитанных сообщений. Так рождается песня (1957) VHSRip-AVC от New-Team

0 | 0

1.09 ГБ

В этой теме нет новых непрочитанных сообщений. Так рождается песня (1957) VHSRip от New-Team

0 | 0

1.09 ГБ




Вы не можете начинать темы
Вы не можете отвечать на сообщения
Вы не можете редактировать свои сообщения
Вы не можете удалять свои сообщения
Вы не можете добавлять вложения

Перейти:  
Для Мосгорсуда, Роскомнадзора и рекламодателей: mosgorsud-torrent[собачка]yandex.ru
 Вход
ppkBB3cker v.2 © 2008-2014 @ PPK
[ Time : 0.033s | 19 Queries | GZIP : Off ]

cron