img image001 image001 image001 image001 image001 image001 image001 image001 image001 image001 image001 image001 image001 image001 image001 image001

Planets Sun Sun Sun
Статистика раздачи
Автор: PriZraK | Размер: 745.35 МБ | Добавлен: 19 фев 2017
Раздают: 0    Качают: 1
Скачать торрент
Скачать торрент
Описание торрента

СообщениеДобавлено: 19 фев 2017 

Страна: СССР
Производство: Ленфильм
Жанр: драма, история
Год выпуска: 1957
Продолжительность: 01:35:33
Перевод: Не требуется
Cубтитры: нет
Оригинальная аудиодорожка: русский
Режиссер: Михаил Дубсон
В ролях:
Всеволод Сафонов, Давид Волосов, Эмма Попова, Евгений Лебедев, Николай Граббе, Иннокентий Смоктуновский, Сергей Филиппов, Георгий Юматов, Софья Пилявская, Лидия Сухаревская, Иван Коваль-Самборский, Пётр Савин...
Об актёрах подробней
Описание:
По одноименной пьесе Владимира Билль-Белоцерковского..
Действие фильма происходит зимой 1918 года в одном из уездных городов России. В городе царят голод и холод. Нет хлеба и продовольствия, не хватает дров и медикаментов. Уездный Совет не в состоянии обеспечить население самым необходимым. Продотряд, посланный в деревню, разгромлен кулаками. В расквартированном в городе красноармейском полку зреет недовольство, подогреваемое командирами, бывшими царскими офицерами, которые готовят контрреволюционный мятеж. В такой сложной обстановке председатель Совета Бурмин (Всеволод Сафонов), комиссары Раевич и Лащилин, поддерживаемые партийным и комсомольским активом, сумели переломить ситуацию. Заговорщики арестованы, кулацкое выступление подавлено. Полк, сохранивший верность Советской власти, отправляется на борьбу с Колчаком.





Источник: DVD5 R5
Качество видео: DVDRip
Формат видео: AVI
Видео: 576x432 (4:3), 25 fps, XviD ~ 953 kbps avg, 0.153 bit/pixel
Аудио: 48 kHz, MP3 2.0, 128 kbps
Раздача от:
Общее
Полное имя : Shtorm.1957.DVDRip-745_[New-team]_by_AVP_Studio.avi
Формат : AVI
Формат/Информация : Audio Video Interleave
Размер файла : 745 Мбайт
Продолжительность : 1 ч. 35 м.
Общий поток : 1091 Кбит/сек
Программа кодирования : VirtualDubMod 1.5.10.3 | www.virtualdub-fr.org || (build 2550/release)
Библиотека кодирования : VirtualDubMod build 2550/release
Видео
Идентификатор : 0
Формат : MPEG-4 Visual
Профиль формата : Advanced Simple@L5
Параметр BVOP формата : 1
Параметр QPel формата : Нет
Параметр GMC формата : Без точки перехода
Параметр матрицы формата : Выборочная
Идентификатор кодека : XVID
Идентификатор кодека/Подсказка : XviD
Продолжительность : 1 ч. 35 м.
Битрейт : 953 Кбит/сек
Ширина : 576 пикселей
Высота : 432 пикселя
Соотношение сторон : 4:3
Частота кадров : 25,000 кадров/сек
Цветовое пространство : YUV
Субдискретизация насыщенности : 4:2:0
Битовая глубина : 8 бит
Тип развёртки : Прогрессивная
Метод сжатия : С потерями
Бит/(Пиксели*Кадры) : 0.153
Размер потока : 651 Мбайт (87%)
Библиотека кодирования : XviD 73
Аудио
Идентификатор : 1
Формат : MPEG Audio
Версия формата : Version 1
Профиль формата : Layer 3
Идентификатор кодека : 55
Идентификатор кодека/Подсказка : MP3
Продолжительность : 1 ч. 35 м.
Вид битрейта : Постоянный
Битрейт : 128 Кбит/сек
Каналы : 2 канала
Частота : 48,0 КГц
Метод сжатия : С потерями
Размер потока : 87,5 Мбайт (12%)
Выравнивание : Соединение по промежуткам
Продолжительность промежутка : 40 мс. (1,00 видеокадр)
Время предзагрузки промежутка : 504 мс.
Библиотека кодирования : LAME3.99r
Настройки программы : -m s -V 4 -q 2 -lowpass 17 -b 128





   Похожие торренты   Торрент   Размер 
В этой теме нет новых непрочитанных сообщений. Шторм (1957) DVDRip от New-Team

0 | 4

1.09 ГБ

В этой теме нет новых непрочитанных сообщений. Шторм (1957) DVDRip-AVC от New-Team

0 | 0

1.09 ГБ

В этой теме нет новых непрочитанных сообщений. Дон Кихот (1957) DVDRip от New-Team

9 | 0

744.89 МБ

В этой теме нет новых непрочитанных сообщений. Дон Кихот (1957) DVDRip-AVC от New-Team

16 | 0

1.08 ГБ

В этой теме нет новых непрочитанных сообщений. Ботагоз (1957) DVDRip от New-Team

0 | 4

1.46 ГБ

В этой теме нет новых непрочитанных сообщений. Высота (1957) DVDRip-AVC от New-Team

42 | 0

1.46 ГБ

В этой теме нет новых непрочитанных сообщений. Высота (1957) DVDRip от New-Team

11 | 0

1.46 ГБ




Вы не можете начинать темы
Вы не можете отвечать на сообщения
Вы не можете редактировать свои сообщения
Вы не можете удалять свои сообщения
Вы не можете добавлять вложения

Перейти:  
 Вход
ppkBB3cker v.2 © 2008-2014 @ PPK
[ Time : 0.023s | 16 Queries | GZIP : Off ]

cron