img image001 image001 image001 image001 image001 image001 image001 image001 image001 image001 image001 image001 image001 image001 image001 image001

Planets Sun Sun Sun
Статистика раздачи
Автор: PriZraK | Размер: 1.09 ГБ | Добавлен: 19 фев 2017
Раздают: 0    Качают: 0
Скачать торрент
Скачать торрент
Описание торрента

СообщениеДобавлено: 19 фев 2017 

Страна: СССР
Производство: Ленфильм
Жанр: драма, история
Год выпуска: 1957
Продолжительность: 01:35:33
Перевод: Не требуется
Cубтитры: нет
Оригинальная аудиодорожка: русский
Режиссер: Михаил Дубсон
В ролях:
Всеволод Сафонов, Давид Волосов, Эмма Попова, Евгений Лебедев, Николай Граббе, Иннокентий Смоктуновский, Сергей Филиппов, Георгий Юматов, Софья Пилявская, Лидия Сухаревская, Иван Коваль-Самборский, Пётр Савин...
Об актёрах подробней
Описание:
По одноименной пьесе Владимира Билль-Белоцерковского..
Действие фильма происходит зимой 1918 года в одном из уездных городов России. В городе царят голод и холод. Нет хлеба и продовольствия, не хватает дров и медикаментов. Уездный Совет не в состоянии обеспечить население самым необходимым. Продотряд, посланный в деревню, разгромлен кулаками. В расквартированном в городе красноармейском полку зреет недовольство, подогреваемое командирами, бывшими царскими офицерами, которые готовят контрреволюционный мятеж. В такой сложной обстановке председатель Совета Бурмин (Всеволод Сафонов), комиссары Раевич и Лащилин, поддерживаемые партийным и комсомольским активом, сумели переломить ситуацию. Заговорщики арестованы, кулацкое выступление подавлено. Полк, сохранивший верность Советской власти, отправляется на борьбу с Колчаком.





Источник: DVD5 R5
Качество видео: DVDRip-AVC
Формат видео: MKV
Видео: 696->762x572 (4:3), 25 fps, H264 ~ 1437 kbps avg, 0.144 bit/pixel
Аудио: 48 kHz, Dolby Digital AC3 2.0, 192 kbps
Раздача от:
Общее
Полное имя : Shtorm.1957.DVDRip-AVC_[New-team]_by_AVP_Studio.mkv
Формат : Matroska
Версия формата : Version 2
Размер файла : 1,09 Гбайт
Продолжительность : 1 ч. 35 м.
Общий поток : 1631 Кбит/сек
Дата кодирования : UTC 2017-02-17 18:16:05
Программа кодирования : mkvmerge v6.1.0 ('Old Devil') built on Mar 4 2013 09:10:42
Библиотека кодирования : libebml v1.3.0 + libmatroska v1.4.0
Видео
Идентификатор : 1
Формат : AVC
Формат/Информация : Advanced Video Codec
Профиль формата : High@L4.1
Параметр CABAC формата : Да
Параметр ReFrames формата : 10 кадров
Идентификатор кодека : V_MPEG4/ISO/AVC
Продолжительность : 1 ч. 35 м.
Битрейт : 1437 Кбит/сек
Ширина : 696 пикселей
Высота : 572 пикселя
Соотношение сторон : 4:3
Режим частоты кадров : Постоянный
Частота кадров : 25,000 кадров/сек
Цветовое пространство : YUV
Субдискретизация насыщенности : 4:2:0
Битовая глубина : 8 бит
Тип развёртки : Прогрессивная
Бит/(Пиксели*Кадры) : 0.144
Размер потока : 961 Мбайт (86%)
Библиотека кодирования : x264 core 148 r2597 e86f3a1
Настройки программы : cabac=1 / ref=10 / deblock=1:-2:-1 / analyse=0x3:0x113 / me=umh / subme=10 / psy=1 / psy_rd=1.00:0.00 / mixed_ref=1 / me_range=32 / chroma_me=1 / trellis=2 / 8x8dct=1 / cqm=0 / deadzone=21,11 / fast_pskip=1 / chroma_qp_offset=-2 / threads=6 / lookahead_threads=1 / sliced_threads=0 / nr=0 / decimate=0 / interlaced=0 / bluray_compat=0 / constrained_intra=0 / bframes=8 / b_pyramid=2 / b_adapt=2 / b_bias=0 / direct=3 / weightb=1 / open_gop=0 / weightp=2 / keyint=250 / keyint_min=25 / scenecut=40 / intra_refresh=0 / rc=2pass / mbtree=0 / bitrate=1437 / ratetol=1.0 / qcomp=0.60 / qpmin=0 / qpmax=69 / qpstep=4 / cplxblur=20.0 / qblur=0.5 / ip_ratio=1.40 / pb_ratio=1.30 / aq=1:1.00
Default : Да
Forced : Нет
Аудио
Идентификатор : 2
Формат : AC-3
Формат/Информация : Audio Coding 3
Расширение режима : CM (complete main)
Параметр Endianness формата : Big
Идентификатор кодека : A_AC3
Продолжительность : 1 ч. 35 м.
Вид битрейта : Постоянный
Битрейт : 192 Кбит/сек
Каналы : 2 канала
Расположение каналов : Front: L R
Частота : 48,0 КГц
Частота кадров : 31,250 кадров/сек (1536 spf)
Битовая глубина : 16 бит
Метод сжатия : С потерями
Размер потока : 131 Мбайт (12%)
Default : Да
Forced : Нет





   Похожие торренты   Торрент   Размер 
В этой теме нет новых непрочитанных сообщений. Шторм (1957) DVDRip от New-Team

0 | 2

1.09 ГБ

В этой теме нет новых непрочитанных сообщений. Шторм (1957) DVDRip от New-Team

0 | 1

745.35 МБ

В этой теме нет новых непрочитанных сообщений. Поединок (1957) DVDRip-AVC от New-Team

5 | 0

1.46 ГБ

В этой теме нет новых непрочитанных сообщений. Поединок (1957) DVDRip от New-Team

1 | 1

1.46 ГБ

В этой теме нет новых непрочитанных сообщений. Ботагоз (1957) DVDRip от New-Team

0 | 4

1.46 ГБ

В этой теме нет новых непрочитанных сообщений. Ботагоз (1957) DVDRip-AVC от New-Team

0 | 0

1.46 ГБ

В этой теме нет новых непрочитанных сообщений. Ботагоз (1957) DVDRip от New-Team

0 | 2

745.35 МБ




Вы не можете начинать темы
Вы не можете отвечать на сообщения
Вы не можете редактировать свои сообщения
Вы не можете удалять свои сообщения
Вы не можете добавлять вложения

Перейти:  
 Вход
ppkBB3cker v.2 © 2008-2014 @ PPK
[ Time : 0.047s | 16 Queries | GZIP : Off ]

cron