img image001 image001 image001 image001 image001 image001 image001 image001 image001 image001 image001 image001 image001 image001 image001 image001

Planets Sun Sun Sun
Статистика раздачи
Автор: Nickolas3434 | Размер: 1.46 ГБ | Добавлен: 03 мар 2017
Раздают: 3    Качают: 0
Скачать торрент
Скачать торрент
Описание торрента

СообщениеДобавлено: 03 мар 2017 

Страна: СССР
Производство: Мосфильм
Жанр: драма
Год выпуска: 1957
Продолжительность: (01:27:17 + 01:19:20) 02:46:37
Перевод: Не требуется
Cубтитры: нет
Оригинальная аудиодорожка: русский
Режиссер: Владимир Краснопольский, Валерий Усков
В ролях:
Вадим Спиридонов, Алексей Серебряков, Надежда Бутырцева, Виктор Мамаев, Валерий Куксин, Алексей Ванин, Борис Новиков, Людмила Хитяева, Павел Кормунин, Ирина Нечаева, Андрей Смоляков, Сергей Мартынов, Марина Дюжева, Валерий Гатаев, Николай Бриллинг, Сергей Полежаев, Василий Корзун, Иван Лапиков, Леонид Харитонов, Михаил Бочаров, Буда Вампилов, Виктор Михайлов (VI), Татьяна Ким, Геннадий Корольков, Юрий Медведев, Дмитрий Орловский, Сергей Харченко, Анна Тогоноева, Женя Милованова, Елена Краснопольская, Василий Лещёв, Наталия Потапова, Александр Зимин, Юрий Чернов...
Об актёрах подробней
Описание:
Драма по одноименному роману Георгия Маркова.
Кинодилогия воспроизводит историю становления Советской власти в Сибири. Фильм первый - "Опрокинутая тишина" - об организации Васюгинской коммуны, ожесточенной борьбе первых сельских коммунаров. Второй фильм - "Эхо далеких выстрелов" - о разоблачении контрреволюционеров, погубивших коммуну и убивших её председателя.





Источник: DVB
Качество видео: SATRip-AVC
Формат видео: MKV
Видео: 688->740x296 (2,500:1), 25 fps, H264 ~ 1059 kbps avg, 0.208 bit/pixel
Аудио: 48 kHz, Dolby Digital AC3 2.0, 192 kbps
Раздача от:
Общее
Полное имя : Otec.i.syn.1979.SATRip-AVC_[New-team]_by_AVP_StudioСерия 01.mkv
Формат : Matroska
Версия формата : Version 2
Размер файла : 782 Мбайт
Продолжительность : 1 ч. 27 м.
Общий поток : 1253 Кбит/сек
Дата кодирования : UTC 2017-03-02 14:23:45
Программа кодирования : mkvmerge v6.1.0 ('Old Devil') built on Mar 4 2013 09:10:42
Библиотека кодирования : libebml v1.3.0 + libmatroska v1.4.0
Видео
Идентификатор : 1
Формат : AVC
Формат/Информация : Advanced Video Codec
Профиль формата : High@L4.1
Параметр CABAC формата : Да
Параметр ReFrames формата : 10 кадров
Идентификатор кодека : V_MPEG4/ISO/AVC
Продолжительность : 1 ч. 27 м.
Битрейт : 1059 Кбит/сек
Ширина : 688 пикселей
Высота : 296 пикселей
Соотношение сторон : 2,500
Режим частоты кадров : Постоянный
Частота кадров : 25,000 кадров/сек
Цветовое пространство : YUV
Субдискретизация насыщенности : 4:2:0
Битовая глубина : 8 бит
Тип развёртки : Прогрессивная
Бит/(Пиксели*Кадры) : 0.208
Размер потока : 647 Мбайт (83%)
Библиотека кодирования : x264 core 148 r2597 e86f3a1
Настройки программы : cabac=1 / ref=10 / deblock=1:-2:-1 / analyse=0x3:0x113 / me=umh / subme=10 / psy=1 / psy_rd=1.00:0.00 / mixed_ref=1 / me_range=32 / chroma_me=1 / trellis=2 / 8x8dct=1 / cqm=0 / deadzone=21,11 / fast_pskip=1 / chroma_qp_offset=-2 / threads=6 / lookahead_threads=1 / sliced_threads=0 / nr=0 / decimate=0 / interlaced=0 / bluray_compat=0 / constrained_intra=0 / bframes=8 / b_pyramid=2 / b_adapt=2 / b_bias=0 / direct=3 / weightb=1 / open_gop=0 / weightp=2 / keyint=250 / keyint_min=25 / scenecut=40 / intra_refresh=0 / rc=2pass / mbtree=0 / bitrate=1059 / ratetol=1.0 / qcomp=0.60 / qpmin=0 / qpmax=69 / qpstep=4 / cplxblur=20.0 / qblur=0.5 / ip_ratio=1.40 / pb_ratio=1.30 / aq=1:1.00
Default : Да
Forced : Нет
Аудио
Идентификатор : 2
Формат : AC-3
Формат/Информация : Audio Coding 3
Расширение режима : CM (complete main)
Параметр Endianness формата : Big
Идентификатор кодека : A_AC3
Продолжительность : 1 ч. 27 м.
Вид битрейта : Постоянный
Битрейт : 192 Кбит/сек
Каналы : 2 канала
Расположение каналов : Front: L R
Частота : 48,0 КГц
Частота кадров : 31,250 кадров/сек (1536 spf)
Битовая глубина : 16 бит
Метод сжатия : С потерями
Размер потока : 120 Мбайт (15%)
Default : Да
Forced : Нет





   Похожие торренты   Торрент   Размер 
В этой теме нет новых непрочитанных сообщений. Отец и сын (1979) SATRip от New-Team

0 | 0

1.46 ГБ

В этой теме нет новых непрочитанных сообщений. Чудеса / Мистер Гонконг / Крёстный Отец Из Кантона / Крёстный Отец Из Гонконга / Ji Ji / Miracles (1989) DVD9 от New-Team | 3xP, 2xA

13 | 4

7.89 ГБ

В этой теме нет новых непрочитанных сообщений. Багряные берега (1979) SATRip-AVC от New-Team

27 | 15

1.09 ГБ

В этой теме нет новых непрочитанных сообщений. Багряные берега (1979) SATRip от New-Team

31 | 9

745.26 МБ

В этой теме нет новых непрочитанных сообщений. Багряные берега (1979) SATRip от New-Team

11 | 4

1.09 ГБ

В этой теме нет новых непрочитанных сообщений. Возьми меня с собой (1979) SATRip от New-Team

7 | 6

1.09 ГБ

В этой теме нет новых непрочитанных сообщений. Отец-молодец / Delivery Man (2013) DVD9 R5 от New-Team | D | лицензия

48 | 30

5.47 ГБ




Вы не можете начинать темы
Вы не можете отвечать на сообщения
Вы не можете редактировать свои сообщения
Вы не можете удалять свои сообщения
Вы не можете добавлять вложения

Перейти:  
 Вход
ppkBB3cker v.2 © 2008-2014 @ PPK
[ Time : 0.035s | 17 Queries | GZIP : Off ]

cron