img image001 image001 image001 image001 image001 image001 image001 image001 image001 image001 image001 image001 image001 image001 image001

Planets Sun Sun Sun
Статистика раздачи
Автор: Nickolas3434 | Размер: 2.91 ГБ | Добавлен: 31 мар 2017
Раздают: 55    Качают: 6
Скачать торрент
Скачать торрент
Описание торрента

СообщениеДобавлено: 31 мар 2017 

Страна: СССР, Чехословакия, ГДР, Вьетнам
Производство: Мосфильм, Баррандов, ДЕФА
Жанр: драма, военный
Год выпуска: 1985
Продолжительность: 05:36:38 (02:46:02 + 02:50:36)
Перевод: Не требуется
Cубтитры: нет
Оригинальная аудиодорожка: русский
Режиссер: Юрий Озеров
В ролях:
Михаил Ульянов, Яков Трипольский, Александр Голобородько, Виталий Розстальный, Николай Засухин, Вячеслав Езепов, Владимир Трошин, Анатолий Никитин, Степан Микоян, Бруно Фрейндлих, Юрий Яковлев, Юозас Будрайтис, Александр Филиппенко, Николай Волков (младший), Леонид Кулагин, Валерий Юрченко, Ромуалдс Анцанс, Эммануил Виторган, Александр Мартынов, Владимир Кузнецов (VI), Ирина Шмелёва, Владимир Широков, Константин Степанов, Юрий Кузьменко, Ахим Петри, Эрнст Хайзе, Хельмут Хельсторф, Герд Михаэль Хеннеберг, Иоахим Томашевски, Эрик Фельдре, Экхард Беккер, Микк Микивер, Геннадий Сайфулин, Лев Прыгунов, Константин Степанков, Александр Воеводин, Николай Иванов, Николай Крючков, Ростислав Янковский, Леонид Евтифьев, Иржи Голый, Т. Голадзе...
Об актёрах подробней
Описание:
Картина состоит из двух частей: "Агрессия" и "Тайфун". Премьера в Москве - январь 1986 г.
Широкоформатный фильм, созданный на основе документальных материалов, с хроникальной точностью воспроизводит некоторые крупные сражения Великой Отечественной Войны - первое героическое сопротивление Красной армии в Брестской крепости и первое крупное поражение Гитлера - разгром фашистских войск под Москвой.





Источник: 2xDVD9 (Custom)
Качество видео: DVDRip
Формат видео: AVI
Видео: 704x304 (2,35:1), 25 fps, XviD ~ 1036 kbps avg, 0.194 bit/pixel
Аудио: 48 kHz, Dolby Digital AC3 2.0, 192 kbps
Раздача от:
Общее
Полное имя : Bitva.za.Moskvu.1985.DVDRip_[New-team]_by_AVP_StudioЧасть 1.avi
Формат : AVI
Формат/Информация : Audio Video Interleave
Размер файла : 1,43 Гбайт
Продолжительность : 2 ч. 46 м.
Общий поток : 1237 Кбит/сек
Программа кодирования : VirtualDubMod 1.5.10.3 | www.virtualdub-fr.org || (build 2550/release)
Библиотека кодирования : VirtualDubMod build 2550/release
Видео
Идентификатор : 0
Формат : MPEG-4 Visual
Профиль формата : Advanced Simple@L5
Параметр BVOP формата : 1
Параметр QPel формата : Нет
Параметр GMC формата : Без точки перехода
Параметр матрицы формата : Выборочная
Идентификатор кодека : XVID
Идентификатор кодека/Подсказка : XviD
Продолжительность : 2 ч. 46 м.
Битрейт : 1036 Кбит/сек
Ширина : 704 пикселя
Высота : 304 пикселя
Соотношение сторон : 2,35:1
Частота кадров : 25,000 кадров/сек
Цветовое пространство : YUV
Субдискретизация насыщенности : 4:2:0
Битовая глубина : 8 бит
Тип развёртки : Прогрессивная
Метод сжатия : С потерями
Бит/(Пиксели*Кадры) : 0.194
Размер потока : 1,20 Гбайт (84%)
Библиотека кодирования : XviD 73
Аудио
Идентификатор : 1
Формат : AC-3
Формат/Информация : Audio Coding 3
Параметр Endianness формата : Big
Идентификатор кодека : 2000
Продолжительность : 2 ч. 45 м.
Вид битрейта : Постоянный
Битрейт : 192 Кбит/сек
Каналы : 2 канала
Расположение каналов : Front: L R
Частота : 48,0 КГц
Частота кадров : 31,250 кадров/сек (1536 spf)
Битовая глубина : 16 бит
Метод сжатия : С потерями
Размер потока : 228 Мбайт (15%)
Выравнивание : Разделение по промежуткам
Продолжительность промежутка : 40 мс. (1,00 видеокадр)
Время предзагрузки промежутка : 500 мс





   Похожие торренты   Торрент   Размер 
В этой теме нет новых непрочитанных сообщений. Битва за Москву (1985) DVDRip от New-Team

14 | 1

2.18 ГБ

В этой теме нет новых непрочитанных сообщений. Битва за Москву (1985) DVDRip-AVC от New-Team

38 | 12

3.71 ГБ

В этой теме нет новых непрочитанных сообщений. Битва за Москву (1985) DVDRip

698 | 76

2.74 ГБ

В этой теме нет новых непрочитанных сообщений. Битва за Москву (1985) DVDRip-AVC от 0ptimus

428 | 26

7 ГБ

В этой теме нет новых непрочитанных сообщений. Битва за Москву (2006) DVDRip от Русфильм

593 | 16

3.3 ГБ

В этой теме нет новых непрочитанных сообщений. Охотники за привидениями. Битва за Москву [01-10] (2017) WEBRip от Files-х

0 | 0

3.44 ГБ

В этой теме нет новых непрочитанных сообщений. Охотники за привидениями. Битва за Москву [01] (2017) WEBRip от Files-х

0 | 0

345.31 МБ




Вы не можете начинать темы
Вы не можете отвечать на сообщения
Вы не можете редактировать свои сообщения
Вы не можете удалять свои сообщения
Вы не можете добавлять вложения

Перейти:  
Для Мосгорсуда, Роскомнадзора и рекламодателей: mosgorsud-torrent[собачка]yandex.ru
 Вход
ppkBB3cker v.2 © 2008-2014 @ PPK
[ Time : 4.002s | 18 Queries | GZIP : Off ]

cron