img image001 image001 image001 image001 image001 image001 image001 image001 image001 image001 image001 image001 image001 image001 image001

Planets Sun Sun Sun
Статистика раздачи
Автор: Nickolas3434 | Размер: 746.25 МБ | Добавлен: 01 апр 2017
Раздают: 5    Качают: 4
Скачать торрент
Скачать торрент
Описание торрента

СообщениеДобавлено: 01 апр 2017 

Страна: СССР
Производство: Арменфильм
Жанр: боевик, биография, приключения
Год выпуска: 1965
Продолжительность: 01:47:37
Перевод: Не требуется
Cубтитры: нет
Оригинальная аудиодорожка: русский
Режиссер: Эразм Карамян, Степан Кеворков
В ролях:
Гурген Тонунц, Борис Чирков, Эльза Леждей, Семён Соколовский, Владимир Кенигсон, Владимир Дружников, Нина Шацкая, Тристан Квелаидзе...
Об актёрах подробней
Описание:
Второй фильм кинотрилогии ("Лично известен", "Чрезвычайное поручение", "Последний подвиг Камо") о революционере-большевике С.А.Тер-Петросяне.
Время действия - 1917 год. Началась гражданская война, над молодой Советской республикой сгустились тучи конрреволюции. Камо получает чрезвычайное поручение Ленина: доставить из Петрограда в Тифлис мандат о назначении Степана Шаумяна чрезвычайным комиссаром по делам Кавказа и пятьсот тысяч рублей золотом для борьбы с белогвардейщиной на Кавказе. Бесстрашный Камо выбирает самый короткий и опасный путь - через районы, занятые белым казачеством. Он делает это намеренно, так как знает о том, что на его след напал известный террорист Борис Савинков, который должен был сорвать поручение, выполняемое Камо, и убить его. Камо и его друзья вступают в смертельный поединок с опасным и опытным врагом...





Источник: DVD9 R5
Качество видео: DVDRip
Формат видео: AVI
Видео: 576x432 (4:3), 25 fps, XviD ~ 832 kbps avg, 0.134 bit/pixel
Аудио: 48 kHz, MP3 2.0, 128 kbps
Раздача от:
Общее
Полное имя : Chrezvychaynoe.poruchenie.1965.DVDRip-745_[New-team]_by_AVP_Studio.avi
Формат : AVI
Формат/Информация : Audio Video Interleave
Размер файла : 746 Мбайт
Продолжительность : 1 ч. 47 м.
Общий поток : 970 Кбит/сек
Программа кодирования : VirtualDubMod 1.5.10.3 | www.virtualdub-fr.org || (build 2550/release)
Библиотека кодирования : VirtualDubMod build 2550/release
Видео
Идентификатор : 0
Формат : MPEG-4 Visual
Профиль формата : Advanced Simple@L5
Параметр BVOP формата : 1
Параметр QPel формата : Нет
Параметр GMC формата : Без точки перехода
Параметр матрицы формата : Выборочная
Идентификатор кодека : XVID
Идентификатор кодека/Подсказка : XviD
Продолжительность : 1 ч. 47 м.
Битрейт : 832 Кбит/сек
Ширина : 576 пикселей
Высота : 432 пикселя
Соотношение сторон : 4:3
Частота кадров : 25,000 кадров/сек
Цветовое пространство : YUV
Субдискретизация насыщенности : 4:2:0
Битовая глубина : 8 бит
Тип развёртки : Прогрессивная
Метод сжатия : С потерями
Бит/(Пиксели*Кадры) : 0.134
Размер потока : 640 Мбайт (86%)
Библиотека кодирования : XviD 73
Аудио
Идентификатор : 1
Формат : MPEG Audio
Версия формата : Version 1
Профиль формата : Layer 3
Идентификатор кодека : 55
Идентификатор кодека/Подсказка : MP3
Продолжительность : 1 ч. 47 м.
Вид битрейта : Постоянный
Битрейт : 128 Кбит/сек
Каналы : 2 канала
Частота : 48,0 КГц
Метод сжатия : С потерями
Размер потока : 98,5 Мбайт (13%)
Выравнивание : Соединение по промежуткам
Продолжительность промежутка : 40 мс. (1,00 видеокадр)
Время предзагрузки промежутка : 504 мс.
Библиотека кодирования : LAME3.99r
Настройки программы : -m s -V 4 -q 2 -lowpass 17 -b 128





   Похожие торренты   Торрент   Размер 
В этой теме нет новых непрочитанных сообщений. Чрезвычайное поручение (1965) DVDRip от New-Team

1 | 0

1.46 ГБ

В этой теме нет новых непрочитанных сообщений. Чрезвычайное поручение (1965) DVDRip-AVC от New-Team

0 | 0

1.46 ГБ

В этой теме нет новых непрочитанных сообщений. Чрезвычайное поручение (1965) DVDRip

40 | 17

1.46 ГБ

В этой теме нет новых непрочитанных сообщений. ЧП – Чрезвычайное происшествие (1958) DVDRip от New-Team

16 | 3

2.18 ГБ

В этой теме нет новых непрочитанных сообщений. ЧП – Чрезвычайное происшествие (1958) DVDRip от New-Team

9 | 1

1.46 ГБ

В этой теме нет новых непрочитанных сообщений. ЧП – Чрезвычайное происшествие (1958) DVDRip-AVC от New-Team

20 | 3

2.18 ГБ

В этой теме нет новых непрочитанных сообщений. Особое поручение (1957) VHSRip от New-Team

3 | 1

1.09 ГБ




Вы не можете начинать темы
Вы не можете отвечать на сообщения
Вы не можете редактировать свои сообщения
Вы не можете удалять свои сообщения
Вы не можете добавлять вложения

Перейти:  
Для Мосгорсуда, Роскомнадзора и рекламодателей: mosgorsud-torrent[собачка]yandex.ru
 Вход
ppkBB3cker v.2 © 2008-2014 @ PPK
[ Time : 0.068s | 19 Queries | GZIP : Off ]

cron