img image001 image001 image001 image001 image001 image001 image001 image001 image001 image001 image001 image001 image001 image001 image001

Planets Sun Sun Sun
Статистика раздачи
Автор: Nickolas3434 | Размер: 698.31 МБ | Добавлен: 12 апр 2017
Раздают: 65    Качают: 4
Скачать торрент
Скачать торрент
Описание торрента

СообщениеДобавлено: 12 апр 2017 

Информация о фильме
Название: Елена Прекрасная
Год выхода: 2017
Жанр: Мелодрама
Режиссер: Павел Мальков
В ролях: Елена Радевич, Владислав Резник, Наталья Высочанская, Валентин Кузнецов (III), Кира Кауфман, Алексей Федькин
О фильме: Елена Соколова (Елена Радевич) – успешная модель и звезда подиума, накануне важного контракта узнает, что ждет ребенка. Девушка оказывается перед выбором: уехать в Париж и стать лицом известной французской фирмы, либо навсегда распрощаться с модельным бизнесом и рожать без мужа. Проходит семь лет. Елена больше не модель, она работает в салоне красоты, у нее есть замечательная дочка Оля и любящий муж Костя (Валентин Кузнецов), ее бывший поклонник. Но спокойная семейная жизнь Елены заканчивается после встречи с богатым бизнесменом Андреем (Владислав Резник). Елена уходит от мужа, а брошенный Костя решается на отчаянный и ужасный поступок…
Страна: Россия
Студия: Кинокомпания "Русское"
Продолжительность: 01:30:02
Перевод: Не Требуется
Субтитры: Нет
Семпл
Файл
Кодек: XviD
Качество: HDTVRip
Видео: 656x368 (1.78:1), 25 fps, XviD build 73 ~946 kbps avg, 0.16 bit/pixel
Звук: 48 kHz, MPEG Layer 3, 2 ch, ~128.00 kbps avg
Общее
Полное имя : Elena.Prekrasnaya.2016.HDTVRip.ot.Portablius.avi
Формат : AVI
Формат/Информация : Audio Video Interleave
Размер файла : 698 Мбайт
Продолжительность : 1 ч. 30 м.
Общий поток : 1085 Кбит/сек
Программа кодирования : VirtualDubMod 1.5.10.3 | www.virtualdub-fr.org || (build 2550/release)
Библиотека кодирования : VirtualDubMod build 2550/release
Видео
Идентификатор : 0
Формат : MPEG-4 Visual
Профиль формата : Advanced Simple@L5
Параметр BVOP формата : 1
Параметр QPel формата : Нет
Параметр GMC формата : Без точки перехода
Параметр матрицы формата : Выборочная
Идентификатор кодека : XVID
Идентификатор кодека/Подсказка : XviD
Продолжительность : 1 ч. 30 м.
Битрейт : 947 Кбит/сек
Ширина : 656 пикселей
Высота : 368 пикселей
Соотношение сторон : 16:9
Частота кадров : 25,000 кадров/сек
Цветовое пространство : YUV
Субдискретизация насыщенности : 4:2:0
Битовая глубина : 8 бит
Тип развёртки : Прогрессивная
Метод сжатия : С потерями
Бит/(Пиксели*Кадры) : 0.157
Размер потока : 610 Мбайт (87%)
Библиотека кодирования : XviD 73
Аудио
Идентификатор : 1
Формат : MPEG Audio
Версия формата : Version 1
Профиль формата : Layer 3
Идентификатор кодека : 55
Идентификатор кодека/Подсказка : MP3
Продолжительность : 1 ч. 30 м.
Вид битрейта : Постоянный
Битрейт : 128 Кбит/сек
Каналы : 2 канала
Частота : 48,0 КГц
Метод сжатия : С потерями
Размер потока : 82,4 Мбайт (12%)
Выравнивание : Соединение по промежуткам
Продолжительность промежутка : 40 мс. (1,00 видеокадр)
Время предзагрузки промежутка : 504 мс.
Библиотека кодирования : LAME3.99r
Настройки программы : -m s -V 4 -q 2 -lowpass 17 -b 128




   Похожие торренты   Торрент   Размер 
В этой теме нет новых непрочитанных сообщений. Елена Прекрасная (2017) HDTVRip-AVC от Files-x

340 | 16

1.37 ГБ

В этой теме нет новых непрочитанных сообщений. Елена Прекрасная (2017) WEB-DLRip от MegaPeer

38 | 4

1.46 ГБ

В этой теме нет новых непрочитанных сообщений. Елена Прекрасная (2017) WEB-DLRip-AVC от ExKinoRay

22 | 3

1.28 ГБ

В этой теме нет новых непрочитанных сообщений. Елена Прекрасная (2017) WEB-DLRip от ImperiaFilm

57 | 8

745.23 МБ

В этой теме нет новых непрочитанных сообщений. Елена Прекрасная (2017) WEB-DLRip 720p от MegaPeer

27 | 0

1.75 ГБ

В этой теме нет новых непрочитанных сообщений. Прекрасная Елена (2007) DVDRip

10 | 4

1.36 ГБ

В этой теме нет новых непрочитанных сообщений. Ковчег (2017) HDTVRip от Portablius

126 | 14

700.86 МБ




Вы не можете начинать темы
Вы не можете отвечать на сообщения
Вы не можете редактировать свои сообщения
Вы не можете удалять свои сообщения
Вы не можете добавлять вложения

Перейти:  
Для Мосгорсуда, Роскомнадзора и рекламодателей: mosgorsud-torrent[собачка]yandex.ru
 Вход
ppkBB3cker v.2 © 2008-2014 @ PPK
[ Time : 0.046s | 18 Queries | GZIP : Off ]

cron