img image001 image001 image001 image001 image001 image001 image001 image001 image001 image001 image001 image001 image001 image001 image001

Planets Sun Sun Sun

COVID-19 - Последняя информация о коронавирусе на сайте Минздрава


Статистика раздачи
Автор: Nickolas3434 | Размер: 744.35 МБ | Добавлен: 14 апр 2017
Раздают: 51    Качают: 0
Скачать торрент
Скачать торрент
Описание торрента

СообщениеДобавлено: 14 апр 2017 

Информация о фильме
Название: Любовь-морковь
Год выхода: 2007
Жанр: Комедия
Режиссёр: Александр Стриженов
В ролях: Гоша Куценко, Кристина Орбакайте, Евгений Стычкин, Андрей Краско, Михаил Козаков, Александр Стриженов, Екатерина Стриженова, Дарья Дроздовская, Ольга Орлова, Виталий Хаев
О фильме: На свадьбе супруги Голубевы клялись друг другу в вечной любви. Со временем страсть ушла, а ее место заняли карьера, быт, друзья и личные увлечения. Они все больше ругаются по пустякам, все меньше проводят времени вместе. Перед супругами замаячила перспектива развода. Последний шанс спасти семью — консультация у семейного психолога доктора Когана. Но доктор Коган лечит семейные отношения не вполне традиционным методом. Утром они просыпаются у себя дома, но теперь они поменялись местами. Им предстоит научиться принимать тела и желания друг друга как свои собственные...

Страна: Россия
Студия:
Продолжительность: 01:44:19
Перевод: Не требуется (оригинальный)
Файл
Формат: avi
Качество: DVDRip (DVD9)
Видео: XviD, 656х368, 25fps, 860kbps
Аудио: MPEG Layer 3, 2ch, 44100Hz, 112kbps

Общее
Полное имя : Lubov.Morkov.1.2007.O.DVDRip.700.CurHaJI.avi
Формат : AVI
Формат/Информация : Audio Video Interleave
Размер файла : 744 Мбайт
Продолжительность : 1 ч. 44 м.
Общий поток : 998 Кбит/сек
Название фильма : Lubov.Morkov.1.2007.O.DVDRip.700.CurHaJI
Программа кодирования : VirtualDubMod 1.5.10.3 | www.virtualdub-fr.org || (build 2550/release)
Библиотека кодирования : VirtualDub build 35491/release
Видео
Идентификатор : 0
Формат : MPEG-4 Visual
Профиль формата : Advanced Simple@L5
Параметр BVOP формата : 1
Параметр QPel формата : Нет
Параметр GMC формата : Без точки перехода
Параметр матрицы формата : Выборочная
Идентификатор кодека : XVID
Идентификатор кодека/Подсказка : XviD
Продолжительность : 1 ч. 44 м.
Битрейт : 860 Кбит/сек
Ширина : 656 пикселей
Высота : 368 пикселей
Соотношение сторон : 16:9
Частота кадров : 25,000 кадров/сек
Цветовое пространство : YUV
Субдискретизация насыщенности : 4:2:0
Битовая глубина : 8 бит
Тип развёртки : Прогрессивная
Метод сжатия : С потерями
Бит/(Пиксели*Кадры) : 0.142
Размер потока : 642 Мбайт (86%)
Библиотека кодирования : XviD 73
Аудио
Идентификатор : 1
Формат : MPEG Audio
Версия формата : Version 1
Профиль формата : Layer 3
Идентификатор кодека : 55
Идентификатор кодека/Подсказка : MP3
Продолжительность : 1 ч. 44 м.
Вид битрейта : Постоянный
Битрейт : 128 Кбит/сек
Каналы : 2 канала
Частота : 48,0 КГц
Метод сжатия : С потерями
Размер потока : 95,5 Мбайт (13%)
Выравнивание : Соединение по промежуткам
Продолжительность промежутка : 40 мс. (1,00 видеокадр)
Время предзагрузки промежутка : 504 мс.
Библиотека кодирования : LAME3.99r
Настройки программы : -m s -V 4 -q 2 -lowpass 17 -b 128


Релиз от:

   Похожие торренты   Торрент   Размер 
В этой теме нет новых непрочитанных сообщений. Любовь-морковь 2 (2008) HDRip

81 | 4

743.98 МБ

В этой теме нет новых непрочитанных сообщений. Любовь-морковь по-французски / Lun dans lautre (Бруно Шиш) [2017, комедия, BDRip] DUB

11 | 0

1.42 ГБ

В этой теме нет новых непрочитанных сообщений. Любовь-морковь по-французски / L'un dans l'autre (Бруно Шиш) [2017, комедия, HDRip] DUB

6 | 0

1.36 ГБ

В этой теме нет новых непрочитанных сообщений. Скрытая любовь / L'amore nascosto (2007) DVDRip-AVC | P

0 | 1

2.4 ГБ

В этой теме нет новых непрочитанных сообщений. Любовь на линии фронта / The Poet (2007) BDRip | P

1 | 0

2.18 ГБ

В этой теме нет новых непрочитанных сообщений. Любовь на линии фронта / The Poet (2007) BDRip 720р | P

1 | 0

3.98 ГБ

В этой теме нет новых непрочитанных сообщений. Подари фюреру ребенка. Любовь в Третьем рейхе (2007) TVRip

2 | 0

361.02 МБ




Вы не можете начинать темы
Вы не можете отвечать на сообщения
Вы не можете редактировать свои сообщения
Вы не можете удалять свои сообщения
Вы не можете добавлять вложения

Перейти:  
Контактная информация: rstracker[пёсик]yandex.ru
 Вход
ppkBB3cker v.2 © 2008-2014 @ PPK
[ Time : 0.028s | 16 Queries | GZIP : Off ]

cron