img image001 image001 image001 image001 image001 image001 image001 image001 image001 image001 image001 image001 image001 image001 image001

Planets Sun Sun Sun
Статистика раздачи
Автор: Nickolas3434 | Размер: 1.28 ГБ | Добавлен: 18 апр 2017
Раздают: 22    Качают: 3
Скачать торрент
Скачать торрент
Описание торрента

СообщениеДобавлено: 18 апр 2017 

Информация о фильме
Оригинальное название: Елена Прекрасная
Год выпуска: 2016
Жанр: Мелодрама
Режиссер: Павел Мальков
В ролях: Елена Радевич, Владислав Резник, Наталья Высочанская, Валентин Кузнецов, Кира Кауфман, Алексей Федькин
Описание: Елена Соколова (Елена Радевич) – успешная модель и звезда подиума, накануне важного контракта узнает, что ждет ребенка. Девушка оказывается перед выбором: уехать в Париж и стать лицом известной французской фирмы, либо навсегда распрощаться с модельным бизнесом и рожать без мужа. Проходит семь лет. Елена больше не модель, она работает в салоне красоты, у нее есть замечательная дочка Оля и любящий муж Костя (Валентин Кузнецов), ее бывший поклонник. Но спокойная семейная жизнь Елены заканчивается после встречи с богатым бизнесменом Андреем (Владислав Резник). Елена уходит от мужа, а брошенный Костя решается на отчаянный и ужасный поступок…

Страна: Россия
Студия: Кинокомпания "Русское"
Продолжительность: 01:30:38
Файл
Формат: MKV
Качество: WEB-DLRip-AVC
Видео: AVC, 1024x576 (1.85:1), 1829 kbps, 25,000 fps, 0,124 bpp
Аудио: 48 kHz, AC3, 5.1, 384 Kbps | RUS |
Навигация по главам: есть
General
Unique ID : 239481527676305612364353791051776291535 (0xB42A76EB4D9553A68C203A75B78672CF)
Complete name : D:Elena.Nice.2016.WEB-DLRip.AVC.ExKinoRay.mkv
Format : Matroska
Format version : Version 2
File size : 1.28 GiB
Duration : 1 h 30 min
Overall bit rate : 2 022 kb/s
Movie name : Елена Прекрасная 2017 from ExKinoRay
Encoded date : UTC 2017-04-18 01:26:29
Writing application : mkvmerge v5.8.0 ('No Sleep / Pillow') built on Sep 2 2012 15:37:04
Writing library : libebml v1.2.3 + libmatroska v1.3.0
Video
ID : 1
Format : AVC
Format/Info : Advanced Video Codec
Format profile : High@L4.1
Format settings, CABAC : Yes
Format settings, ReFrames : 10 frames
Codec ID : V_MPEG4/ISO/AVC
Duration : 1 h 30 min
Bit rate : 1 829 kb/s
Width : 1 024 pixels
Height : 576 pixels
Display aspect ratio : 16:9
Frame rate mode : Constant
Frame rate : 25.000 FPS
Color space : YUV
Chroma subsampling : 4:2:0
Bit depth : 8 bits
Scan type : Progressive
Bits/(Pixel*Frame) : 0.124
Stream size : 1.13 GiB (89%)
Title : Enigma
Writing library : x264 core 144 r2525 40bb568
Encoding settings : cabac=1 / ref=10 / deblock=1:-2:-2 / analyse=0x3:0x113 / me=umh / subme=10 / psy=1 / psy_rd=1.00:0.05 / mixed_ref=1 / me_range=32 / chroma_me=1 / trellis=2 / 8x8dct=1 / cqm=0 / deadzone=21,11 / fast_pskip=1 / chroma_qp_offset=-3 / threads=12 / lookahead_threads=2 / sliced_threads=0 / nr=0 / decimate=0 / interlaced=0 / bluray_compat=0 / constrained_intra=0 / bframes=9 / b_pyramid=2 / b_adapt=2 / b_bias=0 / direct=3 / weightb=1 / open_gop=0 / weightp=2 / keyint=250 / keyint_min=25 / scenecut=40 / intra_refresh=0 / rc_lookahead=40 / rc=2pass / mbtree=0 / bitrate=1829 / ratetol=1.0 / qcomp=0.60 / qpmin=0 / qpmax=51 / qpstep=4 / cplxblur=20.0 / qblur=0.5 / vbv_maxrate=50000 / vbv_bufsize=62500 / nal_hrd=none / filler=0 / ip_ratio=1.40 / pb_ratio=1.30 / aq=1:1.00
Default : Yes
Forced : No
Color range : Limited
Color primaries : BT.709
Transfer characteristics : BT.709
Matrix coefficients : BT.709
Audio
ID : 2
Format : AC-3
Format/Info : Audio Coding 3
Mode extension : CM (complete main)
Format settings, Endianness : Big
Codec ID : A_AC3
Duration : 1 h 30 min
Bit rate mode : Constant
Bit rate : 192 kb/s
Channel(s) : 2 channels
Channel positions : Front: L R
Sampling rate : 48.0 kHz
Frame rate : 31.250 FPS (1536 spf)
Compression mode : Lossy
Stream size : 124 MiB (9%)
Language : Russian
Default : Yes
Forced : No


Релиз от:
Автор релиза:



   Похожие торренты   Торрент   Размер 
В этой теме нет новых непрочитанных сообщений. Елена Прекрасная (2017) WEB-DLRip от ImperiaFilm

57 | 8

745.23 МБ

В этой теме нет новых непрочитанных сообщений. Елена Прекрасная (2017) WEB-DLRip от MegaPeer

38 | 4

1.46 ГБ

В этой теме нет новых непрочитанных сообщений. Елена Прекрасная (2017) WEB-DLRip 720p от MegaPeer

27 | 0

1.75 ГБ

В этой теме нет новых непрочитанных сообщений. Елена Прекрасная (2017) HDTVRip от Portablius

65 | 4

698.31 МБ

В этой теме нет новых непрочитанных сообщений. Елена Прекрасная (2017) HDTVRip-AVC от Files-x

340 | 16

1.37 ГБ

В этой теме нет новых непрочитанных сообщений. Прекрасная Елена (2007) DVDRip

10 | 4

1.36 ГБ

В этой теме нет новых непрочитанных сообщений. Елена Темникова - TEMNIKOVA II (2017) AAC от BestSound ExKinoRay | iTunes

44 | 5

47.06 МБ




Вы не можете начинать темы
Вы не можете отвечать на сообщения
Вы не можете редактировать свои сообщения
Вы не можете удалять свои сообщения
Вы не можете добавлять вложения

Перейти:  
Для Мосгорсуда, Роскомнадзора и рекламодателей: mosgorsud-torrent[собачка]yandex.ru
 Вход
ppkBB3cker v.2 © 2008-2014 @ PPK
[ Time : 0.035s | 18 Queries | GZIP : Off ]

cron