img image001 image001 image001 image001 image001 image001 image001 image001 image001 image001 image001 image001 image001 image001 image001

Planets Sun Sun Sun
Статистика раздачи
Автор: Nickolas3434 | Размер: 743.98 МБ | Добавлен: 27 апр 2017
Раздают: 81    Качают: 4
Скачать торрент
Скачать торрент
Описание торрента

СообщениеДобавлено: 27 апр 2017 

Информация о фильме
Название: Любовь-морковь 2
Год выхода: 2008
Жанр: Комедия
Режиссёр: Максим Пежемский
В ролях: Гоша Куценко, Кристина Орбакайте, Денис Парамонов, Алина Булынко, Андрей Ургант, Лидия Вележева, Кирилл Плетнёв, Ольга Орлова, Дарья Дроздовская, Павел Меленчук, Леонид Тимцуник, Анастасия Федоркова, Прохор Дубравин, Никита Добин, Маргарита Силкина, Даниил Сонин, Сергей Тезов, Андрей Григорьев-Апполонов, Зураб Гурцкаия, Никас Сафронов, Галина Сазонова, Александр Коржов, Валерий Громовиков, Владимир Чуприков, Валентина Абрамова, Виктория Агапова, Алексей Агрызков, Анна Ковалева, Юрий Думчев, Алла Юганова, Александр Армер, Ефим Банчик, Олег Билик, Полина Борунова, Денис Гнедовец, Максим Громов, Виктор Довженко, Ксения Иванова, Артак Казарян, Александр Кудринский
О фильме: Десять лет назад супруги Голубевы проверили свои чувства на прочность, поменявшись телами. Теперь они — папа Андрей и мама Марина. В их семье растут близнецы, Глеб и Светочка. Жизнь супругов налажена, карьера головокружительна, а день расписан по часам. Они уже плохо помнят, что дети больше любят живых собак, чем искусственных, и что друзья родителей — не лучшая компания в день рожденья. Они забыли, что любовь и внимание дороже денег. Чтобы вернуть все на свои места, нужно опять поменять всех местами — решит доктор Коган и навестит своих старых приятелей Голубевых...

Страна: Россия
Студия: Интерфест, Реал-Дакота
Продолжительность: 01:38:51
Перевод: Не требуется (оригинальный)
Файл
Формат: avi
Качество: HDRip (BDRip.1080p)
Видео: XviD, 640х272, 23.976fps, 915kbps
Аудио: MPEG Layer 3, 2ch, 48000Hz, 128kbps

Общее
Полное имя : Lubov.Morkov.2.2008.O.HDRip.700.CurHaJI.avi
Формат : AVI
Формат/Информация : Audio Video Interleave
Размер файла : 744 Мбайт
Продолжительность : 1 ч. 38 м.
Общий поток : 1052 Кбит/сек
Название фильма : Lubov.Morkov.2.2008.O.HDRip.700.CurHaJI
Программа кодирования : VirtualDubMod 1.5.10.3 | www.virtualdub-fr.org || (build 2550/release)
Библиотека кодирования : VirtualDub build 35491/release
Видео
Идентификатор : 0
Формат : MPEG-4 Visual
Профиль формата : Advanced Simple@L5
Параметр BVOP формата : 1
Параметр QPel формата : Нет
Параметр GMC формата : Без точки перехода
Параметр матрицы формата : Выборочная
Идентификатор кодека : XVID
Идентификатор кодека/Подсказка : XviD
Продолжительность : 1 ч. 38 м.
Битрейт : 915 Кбит/сек
Ширина : 640 пикселей
Высота : 272 пикселя
Соотношение сторон : 2,35:1
Частота кадров : 23,976 (24000/1001) кадра/сек
Частота кадров в оригинале : 23,976 (23976/1000) кадра/сек
Цветовое пространство : YUV
Субдискретизация насыщенности : 4:2:0
Битовая глубина : 8 бит
Тип развёртки : Прогрессивная
Метод сжатия : С потерями
Бит/(Пиксели*Кадры) : 0.219
Размер потока : 647 Мбайт (87%)
Библиотека кодирования : XviD 73
Аудио
Идентификатор : 1
Формат : MPEG Audio
Версия формата : Version 1
Профиль формата : Layer 3
Идентификатор кодека : 55
Идентификатор кодека/Подсказка : MP3
Продолжительность : 1 ч. 38 м.
Вид битрейта : Постоянный
Битрейт : 128 Кбит/сек
Каналы : 2 канала
Частота : 48,0 КГц
Метод сжатия : С потерями
Размер потока : 90,5 Мбайт (12%)
Выравнивание : Соединение по промежуткам
Продолжительность промежутка : 42 мс. (1,00 видеокадр)
Время предзагрузки промежутка : 504 мс.
Библиотека кодирования : LAME3.99r
Настройки программы : -m s -V 4 -q 2 -lowpass 17 -b 128


Релиз от:

   Похожие торренты   Торрент   Размер 
В этой теме нет новых непрочитанных сообщений. Любовь-морковь по-французски / L'un dans l'autre (Бруно Шиш) [2017, комедия, HDRip] DUB

6 | 0

1.36 ГБ

В этой теме нет новых непрочитанных сообщений. Любовь-морковь по-французски / Lun dans lautre (Бруно Шиш) [2017, комедия, BDRip] DUB

11 | 0

1.42 ГБ

В этой теме нет новых непрочитанных сообщений. Любовь-морковь по-французски / L'un dans l'autre (2017) BDRip-AVC от msltel | D

0 | 0

1.51 ГБ

В этой теме нет новых непрочитанных сообщений. Запретная любовь / The Edge of love (Джон Мэйбери) [2008, драма, мелодрама, военный, биография, BDRip-AVC] MVO / Фильмы HDRip

2 | 0

2.91 ГБ

В этой теме нет новых непрочитанных сообщений. Любовь вне правил / Leatherheads (2008) BDRip-AVC | P

29 | 4

1.35 ГБ

В этой теме нет новых непрочитанных сообщений. Любовь на реке / Cry Me A River / He Shang De Ai Qing (2008) BDRip | L2

0 | 0

448.58 МБ

В этой теме нет новых непрочитанных сообщений. Любовь вне правил / Leatherheads (2008) BDRemux 1080p от HDLine | P

11 | 0

16.92 ГБ




Вы не можете начинать темы
Вы не можете отвечать на сообщения
Вы не можете редактировать свои сообщения
Вы не можете удалять свои сообщения
Вы не можете добавлять вложения

Перейти:  
Контактная информация: rstracker[пёсик]yandex.ru
 Вход
ppkBB3cker v.2 © 2008-2014 @ PPK
[ Time : 0.024s | 20 Queries | GZIP : Off ]

cron