img image001 image001 image001 image001 image001 image001 image001 image001 image001 image001 image001 image001 image001 image001 image001 image001

Planets Sun Sun Sun
Статистика раздачи
Автор: Nickolas3434 | Размер: 1.46 ГБ | Добавлен: 23 май 2017
Раздают: 4    Качают: 0
Скачать торрент
Скачать торрент
Описание торрента

СообщениеДобавлено: 23 май 2017 


Мы "В КОНТАКТЕ"


Страна: СССР
Производство: Никола-фильм
Жанр: драма
Год выпуска: 1993
Продолжительность: 01:48:55
Перевод: Не требуется
Cубтитры: нет
Оригинальная аудиодорожка: русский
Режиссер: Виктор Сергеев
В ролях:
Александр Абдулов, Ольга Понизова, Ольга Антонова, Борис Клюев, Владимир Сошальский, Константин Заклинский, Георгий Мартиросьян, Нина Русланова, Андрей Ургант, Валентин Никулин, Юлия Яковлева, Сергей Снежкин, Анатолий Шведерский, Александр Сластин, Александр Кириллов, Анна Твеленёва, Михаэла Эрхарт, Андрей Максимков, Светлана Столбова...
Об актёрах подробней
Описание:
Александр Абдулов сыграл в этом фильме необычного для русского кино героя - современного священника. Влюбленная в него Нина готова пойти на любые жертвы и ухищрения, чтобы добиться взаимности. Девушка не знает, что объект ее желания далек от идеала святости, а его прошлое отягощено преступлением.





Источник: DVD9 R5
Качество видео: DVDRip
Формат видео: AVI
Видео: 704x528 (4:3), 25 fps, XviD ~ 1461 kbps avg, 0.157 bit/pixel
Аудио: 48 kHz, Dolby Digital AC3 5.1, 448 kbps
Раздача от:
Общее
Полное имя : Greh.Istoriya.strasti.1993.DVDRip_[New-team]_by_AVP_Studio.avi
Формат : AVI
Формат/Информация : Audio Video Interleave
Размер файла : 1,46 Гбайт
Продолжительность : 1 ч. 48 м.
Общий поток : 1918 Кбит/сек
Программа кодирования : VirtualDubMod 1.5.10.3 | www.virtualdub-fr.org || (build 2550/release)
Библиотека кодирования : VirtualDubMod build 2550/release
Видео
Идентификатор : 0
Формат : MPEG-4 Visual
Профиль формата : Advanced Simple@L5
Параметр BVOP формата : 1
Параметр QPel формата : Нет
Параметр GMC формата : Без точки перехода
Параметр матрицы формата : Выборочная
Идентификатор кодека : XVID
Идентификатор кодека/Подсказка : XviD
Продолжительность : 1 ч. 48 м.
Битрейт : 1461 Кбит/сек
Ширина : 704 пикселя
Высота : 528 пикселей
Соотношение сторон : 4:3
Частота кадров : 25,000 кадров/сек
Цветовое пространство : YUV
Субдискретизация насыщенности : 4:2:0
Битовая глубина : 8 бит
Тип развёртки : Прогрессивная
Метод сжатия : С потерями
Бит/(Пиксели*Кадры) : 0.157
Размер потока : 1,11 Гбайт (76%)
Библиотека кодирования : XviD 73
Аудио
Идентификатор : 1
Формат : AC-3
Формат/Информация : Audio Coding 3
Параметр Endianness формата : Big
Идентификатор кодека : 2000
Продолжительность : 1 ч. 48 м.
Вид битрейта : Постоянный
Битрейт : 448 Кбит/сек
Каналы : 6 каналов
Расположение каналов : Front: L C R, Side: L R, LFE
Частота : 48,0 КГц
Частота кадров : 31,250 кадров/сек (1536 spf)
Битовая глубина : 16 бит
Метод сжатия : С потерями
Размер потока : 349 Мбайт (23%)
Выравнивание : Разделение по промежуткам
Продолжительность промежутка : 40 мс. (1,00 видеокадр)
Время предзагрузки промежутка : 500 мс





   Похожие торренты   Торрент   Размер 
В этой теме нет новых непрочитанных сообщений. Грех. История страсти (1993) DVDRip-AVC от New-Team

24 | 2

1.46 ГБ

В этой теме нет новых непрочитанных сообщений. Грех. История страсти (1993) DVDRip от New-Team

15 | 1

745.18 МБ

В этой теме нет новых непрочитанных сообщений. Грех. История страсти (1993) DVDRip от Odyzic и MyWorldFilm

10 | 3

1.71 ГБ

В этой теме нет новых непрочитанных сообщений. Несмертный грех / Грех, достойный прощения / Peccato veniale (1974) DVDRip | L1

150 | 65

1.36 ГБ

В этой теме нет новых непрочитанных сообщений. Страсти по Анжелике (1993) DVDRip

76 | 12

1.37 ГБ

В этой теме нет новых непрочитанных сообщений. Страсти по Анжелике (1993) DVDRip от NovaLan

41 | 7

947.08 МБ

В этой теме нет новых непрочитанных сообщений. Жрица страсти / Woman of Desire (1993) DVDRip | A

497 | 27

1.37 ГБ




Вы не можете начинать темы
Вы не можете отвечать на сообщения
Вы не можете редактировать свои сообщения
Вы не можете удалять свои сообщения
Вы не можете добавлять вложения

Перейти:  
 Вход
ppkBB3cker v.2 © 2008-2014 @ PPK
[ Time : 0.033s | 15 Queries | GZIP : Off ]

cron