img image001 image001 image001 image001 image001 image001 image001 image001 image001 image001 image001 image001 image001 image001 image001

Planets Sun Sun Sun
Статистика раздачи
Автор: Nickolas3434 | Размер: 745.23 МБ | Добавлен: 25 май 2017
Раздают: 57    Качают: 8
Скачать торрент
Скачать торрент
Описание торрента

СообщениеДобавлено: 25 май 2017 

Информация о фильме
Название: Елена Прекрасная
Год выхода: 2017
Жанр: Мелодрама
Режиссер: Павел Мальков
В ролях: Елена Радевич, Владислав Резник, Наталья Высочанская, Валентин Кузнецов (III), Кира Кауфман, Алексей Федькин
О фильме:
Елена Соколова (Елена Радевич) – успешная модель и звезда подиума, накануне важного контракта узнает, что ждет ребенка. Девушка оказывается перед выбором: уехать в Париж и стать лицом известной французской фирмы, либо навсегда распрощаться с модельным бизнесом и рожать без мужа. Проходит семь лет. Елена больше не модель, она работает в салоне красоты, у нее есть замечательная дочка Оля и любящий муж Костя (Валентин Кузнецов), ее бывший поклонник. Но спокойная семейная жизнь Елены заканчивается после встречи с богатым бизнесменом Андреем (Владислав Резник). Елена уходит от мужа, а брошенный Костя решается на отчаянный и ужасный поступок…

Страна: Россия
Студия: Кинокомпания "Русское"
Продолжительность: 01:30:38
Перевод: Не требуется
Файл
Кодек: XviD
Качество: WEB-DLRip
Видео: 624x352 (1.77:1), 25 fps, XviD build 73 ~1011 kbps avg, 0.18 bit/pixel
Звук: 48 kHz, MPEG Layer 3, 2 ch, ~128.00 kbps avg
Субтитры: Отсутствуют
Семпл
General
Complete name : D:Изготовление рипаElena Prekrasnaya 2017.WEB-DLRip by shkiper.avi
Format : AVI
Format/Info : Audio Video Interleave
File size : 745 MiB
Duration : 1 h 30 min
Overall bit rate : 1 150 kb/s
Writing application : VirtualDubMod 1.5.10.3 | www.virtualdub-fr.org || (build 2550/release)
Writing library : VirtualDubMod build 2550/release
Video
ID : 0
Format : MPEG-4 Visual
Format profile : Advanced Simple@L5
Format settings, BVOP : 1
Format settings, QPel : No
Format settings, GMC : No warppoints
Format settings, Matrix : Custom
Codec ID : XVID
Codec ID/Hint : XviD
Duration : 1 h 30 min
Bit rate : 1 012 kb/s
Width : 624 pixels
Height : 352 pixels
Display aspect ratio : 16:9
Frame rate : 25.000 FPS
Color space : YUV
Chroma subsampling : 4:2:0
Bit depth : 8 bits
Scan type : Progressive
Compression mode : Lossy
Bits/(Pixel*Frame) : 0.184
Stream size : 656 MiB (88%)
Writing library : XviD 73
Audio
ID : 1
Format : MPEG Audio
Format version : Version 1
Format profile : Layer 3
Codec ID : 55
Codec ID/Hint : MP3
Duration : 1 h 30 min
Bit rate mode : Constant
Bit rate : 128 kb/s
Channel(s) : 2 channels
Sampling rate : 48.0 kHz
Compression mode : Lossy
Stream size : 83.0 MiB (11%)
Alignment : Aligned on interleaves
Interleave, duration : 40 ms (1.00 video frame)
Interleave, preload duratio : 504 ms
Writing library : LAME3.99r
Encoding settings : -m s -V 4 -q 2 -lowpass 17 -b 128

Релиз от:



   Похожие торренты   Торрент   Размер 
В этой теме нет новых непрочитанных сообщений. Елена Прекрасная (2017) WEB-DLRip-AVC от ExKinoRay

22 | 3

1.28 ГБ

В этой теме нет новых непрочитанных сообщений. Елена Прекрасная (2017) WEB-DLRip от MegaPeer

38 | 4

1.46 ГБ

В этой теме нет новых непрочитанных сообщений. Елена Прекрасная (2017) WEB-DLRip 720p от MegaPeer

27 | 0

1.75 ГБ

В этой теме нет новых непрочитанных сообщений. Елена Прекрасная (2017) HDTVRip-AVC от Files-x

340 | 16

1.37 ГБ

В этой теме нет новых непрочитанных сообщений. Елена Прекрасная (2017) HDTVRip от Portablius

65 | 4

698.31 МБ

В этой теме нет новых непрочитанных сообщений. Елена и тайна Авалора / Elena and the Secret of Avalor (2016) WEB-DLRip от ImperiaFilm | КПК | D

54 | 2

285.08 МБ

В этой теме нет новых непрочитанных сообщений. Прекрасная Елена (2007) DVDRip

10 | 4

1.36 ГБ




Вы не можете начинать темы
Вы не можете отвечать на сообщения
Вы не можете редактировать свои сообщения
Вы не можете удалять свои сообщения
Вы не можете добавлять вложения

Перейти:  
Для Мосгорсуда, Роскомнадзора и рекламодателей: mosgorsud-torrent[собачка]yandex.ru
 Вход
ppkBB3cker v.2 © 2008-2014 @ PPK
[ Time : 0.038s | 19 Queries | GZIP : Off ]

cron