img image001 image001 image001 image001 image001 image001 image001 image001 image001 image001 image001 image001 image001 image001 image001

Planets Sun Sun Sun

COVID-19 - Последняя информация о коронавирусе на сайте Минздрава


Статистика раздачи
Автор: Nickolas3434 | Размер: 403.51 МБ | Добавлен: 30 май 2017
Раздают: 24    Качают: 1
Скачать торрент
Скачать торрент
Описание торрента

СообщениеДобавлено: 30 май 2017 

Информация о фильме
Название: На игре 2. Новый уровень
Год выхода: 2010
Жанр: боевик, приключения
Режиссер: Павел Санаев
В ролях: Сергей Чирков, Марина Петренко, Павел Прилучный, Евгений Харланов, Нодар Сирадзе, Алексей Бардуков, Тихон Жизневский, Агния Дитковските, Виктор Вержбицкий, Борис Тенин
О фильме:
После проведения спецоперации, во время которой был убит один из членов команды, у геймеров начинается другая жизнь. Каждый из них понимает - они работают на крупный преступный синдикат. За дисками теперь охотятся все - и властные структуры, и геймеры. Задача - не допустить, чтобы такой материал попал за границу. Часть команды решает забрать их себе и сформировать собственную подконтрольную армию. Вампир и Рита пытаются им помешать. Теперь в команде - каждый сам за себя.

Страна: Россия
Продолжительность: 01:29:30
Перевод: оригинал
Файл
Формат: MP4
Качество: HDRip-AVC | КПК
Видео: Н.264, 640x272 (2,148), 24.000 fps, 500 Kbps
Звук: AAC LC, 48.0 KHz, 2 ch, 128 Kbps
Общее
Полное имя : C:UsersАлександрDesktopфильмNa igre.2010.ImperiaFilm.mp4
Формат : MPEG-4
Профиль формата : Base Media
Идентификатор кодека : isom (isom/avc1/iso6)
Размер файла : 404 Мбайт
Продолжительность : 1 ч. 29 м.
Режим общего битрейта : Переменный
Общий поток : 630 Кбит/сек
Дата кодирования : UTC 2017-05-29 18:16:48
Дата пометки : UTC 2017-05-29 18:16:48
Видео
Идентификатор : 1
Формат : AVC
Формат/Информация : Advanced Video Codec
Профиль формата : High@L4.1
Параметр CABAC формата : Да
Параметр ReFrames формата : 10 кадров
Идентификатор кодека : avc1
Идентификатор кодека/Информация : Advanced Video Coding
Продолжительность : 1 ч. 29 м.
Битрейт : 500 Кбит/сек
Максимальный битрейт : 1771 Кбит/сек
Ширина : 640 пикселей
Высота : 272 пикселя
Соотношение сторон : 2,35:1
Режим частоты кадров : Постоянный
Частота кадров : 24,000 кадра/сек
Цветовое пространство : YUV
Субдискретизация насыщенности : 4:2:0
Битовая глубина : 8 бит
Тип развёртки : Прогрессивная
Бит/(Пиксели*Кадры) : 0.120
Размер потока : 319 Мбайт (79%)
Заголовок : 264@GPAC0.5.2-DEV-rev248-g39d5978-master
Библиотека кодирования : x264 core 146 r2538 121396c
Настройки программы : cabac=1 / ref=10 / deblock=1:-3:-3 / analyse=0x3:0x113 / me=umh / subme=11 / psy=1 / psy_rd=1.00:0.00 / mixed_ref=1 / me_range=48 / chroma_me=1 / trellis=2 / 8x8dct=1 / cqm=0 / deadzone=21,11 / fast_pskip=0 / chroma_qp_offset=-2 / threads=6 / lookahead_threads=1 / sliced_threads=0 / nr=0 / decimate=0 / interlaced=0 / bluray_compat=0 / constrained_intra=0 / bframes=10 / b_pyramid=2 / b_adapt=2 / b_bias=0 / direct=3 / weightb=1 / open_gop=0 / weightp=2 / keyint=240 / keyint_min=24 / scenecut=40 / intra_refresh=0 / rc_lookahead=40 / rc=2pass / mbtree=0 / bitrate=500 / ratetol=1.0 / qcomp=0.60 / qpmin=0 / qpmax=69 / qpstep=4 / cplxblur=20.0 / qblur=0.5 / vbv_maxrate=14000 / vbv_bufsize=14000 / nal_hrd=none / filler=0 / ip_ratio=1.40 / pb_ratio=1.30 / aq=1:1.00
Дата кодирования : UTC 2017-05-29 18:16:48
Дата пометки : UTC 2017-05-29 18:17:08
Аудио
Идентификатор : 2
Формат : AAC
Формат/Информация : Advanced Audio Codec
Профиль формата : LC
Идентификатор кодека : 40
Продолжительность : 1 ч. 29 м.
Вид битрейта : Переменный
Битрейт : 128 Кбит/сек
Максимальный битрейт : 200 Кбит/сек
Каналы : 2 канала
Расположение каналов : Front: L R
Частота : 48,0 КГц
Частота кадров : 46,875 кадров/сек (1024 spf)
Метод сжатия : С потерями
Размер потока : 82,0 Мбайт (20%)
Дата кодирования : UTC 2017-05-29 14:33:06
Дата пометки : UTC 2017-05-29 18:17:08



Релиз от:

   Похожие торренты   Торрент   Размер 
В этой теме нет новых непрочитанных сообщений. На игре (2009) HDRip-AVC от ImperiaFilm | КПК

42 | 2

423.97 МБ

В этой теме нет новых непрочитанных сообщений. На игре 2: Новый уровень (2010) BDRemux 1080p

27 | 6

16.82 ГБ

В этой теме нет новых непрочитанных сообщений. Машина для убийств / Icarus (2010) HDRip от ImperiaFilm | КПК | P

2 | 0

397.68 МБ

В этой теме нет новых непрочитанных сообщений. Колодец / The Well (2014) HDRip-AVC от ImperiaFilm | КПК | L1

9 | 0

428.54 МБ

В этой теме нет новых непрочитанных сообщений. Эверли / Everly (2014) HDRip-AVC от ImperiaFilm | КПК | D

4 | 1

415.86 МБ

В этой теме нет новых непрочитанных сообщений. Ренессе / Renesse (2016) HDRip-AVC от ImperiaFilm | КПК | L

24 | 0

351.64 МБ

В этой теме нет новых непрочитанных сообщений. Чужеродный / Alienate / Battle Force 2 (2016) HDRip-AVC от ImperiaFilm | КПК | L1

30 | 0

388.4 МБ




Вы не можете начинать темы
Вы не можете отвечать на сообщения
Вы не можете редактировать свои сообщения
Вы не можете удалять свои сообщения
Вы не можете добавлять вложения

Перейти:  
Контактная информация: rstracker[пёсик]yandex.ru
 Вход
ppkBB3cker v.2 © 2008-2014 @ PPK
[ Time : 0.030s | 18 Queries | GZIP : Off ]

cron