img image001 image001 image001 image001 image001 image001 image001 image001 image001 image001 image001 image001 image001 image001 image001 image001

Planets Sun Sun Sun
Статистика раздачи
Автор: Nickolas3434 | Размер: 6.8 ГБ | Добавлен: 04 июн 2017
Раздают: 180    Качают: 18
Скачать торрент
Скачать торрент
Описание торрента

СообщениеДобавлено: 04 июн 2017 

Информация о фильме
Название: Приключения Электроника
Год выхода: 1979
Жанр: Приключения, фантастика, комедия, детский, семейный, экранизация
Режиссер: Константин Бромберг
В ролях: Владимир Торсуев, Юрий Торсуев, Василий Скромный, Оксана Алексеева, Максим Калинин, Дмитрий Максимов, Евгений Лившиц, Валерия Солуян, Николай Гринько, Елизавета Никищихина, Владимир Басов ст., Николай Караченцов, Евгений Весник, Майя Булгакова, Николай Боярский, Роза Макагонова, Марина Самойлова, Наталья Васаженко, Юрий Чернов, Лев Перфилов, Геннадий Ялович, Валентин Кулик, Оксана Фандера, Валентина Губская, Галина Осташевская, Валерий Гутман, Анатолий Обухов, Борис Смельцов, Александр Казимиров, Андрей Гончар
О фильме:
Советский ученый создает гениального робота. Это мальчик, который способен решать любые математические задачи, он пишет самые лучшие сочинения и отлично поет! А еще он - точная копия школьника Сережи Сыроежкина. Сообразительный мальчуган быстренько перекладывает все свои обязанности на электронного двойника. Тот делает за него домашние задания, ходит в школу и выполняет хозяйственные дела, которые Сыроежкину поручают родители... Этoт дeтcкий мyзыкaльный фильм oб yдивитeльныx пpиключeнияx мaльчикa и eгo двoйникa - элeктpoннoгo poбoтa, жeлaющeгo нeпpeмeннo yзнaть, чтo знaчит «быть чeлoвeкoм», в нaчaлe вocьмидecятыx гoдoв был нecoмнeнным peкopдcмeнoм пo пoпyляpнocти y юныx тeлeзpитeлeй.

Страна: СССР
Студия: Одесская киностудия
Продолжительность: 01:11:08 + 01:04:14 + 01:03:50
Перевод: не требуется
Файл
Кодек: h.264
Качество: DVDRip
Видео: MPEG-4 AVC, 720x544, 4500 Кбит/с, 25.000 кадр/с
Звук: Аудио #1: Русский ( AC3, 6ch, 384 Кбит/с, 48.0 KHz)
Субтитры: русские + внешние (отдельно)
Семпл
General
Unique ID : 184499994370627918656789586735569277943 (0x8ACD680928E628D3A41A4E7041F793F7)
Complete name :Elektronik.1979.DVDRip-AVC
Format : Matroska
Format version : Version 4 / Version 2
File size : 2.43 GiB
Duration : 1 h 11 min
Overall bit rate : 4 886 kb/s
Encoded date : UTC 2017-06-01 20:35:37
Writing application : mkvmerge v7.8.0 ('River Man') 64bit built on Mar 27 2015 16:31:37
Writing library : libebml v1.3.1 + libmatroska v1.4.2
Video
ID : 1
Format : AVC
Format/Info : Advanced Video Codec
Format profile : High@L4.1
Format settings, CABAC : Yes
Format settings, ReFrames : 12 frames
Codec ID : V_MPEG4/ISO/AVC
Duration : 1 h 11 min
Bit rate : 4 500 kb/s
Width : 720 pixels
Height : 544 pixels
Display aspect ratio : 4:3
Frame rate mode : Constant
Frame rate : 25.000 FPS
Color space : YUV
Chroma subsampling : 4:2:0
Bit depth : 8 bits
Scan type : Progressive
Bits/(Pixel*Frame) : 0.460
Stream size : 2.24 GiB (92%)
Title : Video-H264
Writing library : x264 core 146 r2538 121396c
Encoding settings : cabac=1 / ref=12 / deblock=1:-3:-3 / analyse=0x3:0x133 / me=umh / subme=11 / psy=1 / psy_rd=1.00:0.00 / mixed_ref=1 / me_range=32 / chroma_me=1 / trellis=2 / 8x8dct=1 / cqm=0 / deadzone=21,11 / fast_pskip=1 / chroma_qp_offset=-2 / threads=6 / lookahead_threads=1 / sliced_threads=0 / nr=0 / decimate=1 / interlaced=0 / bluray_compat=0 / constrained_intra=0 / bframes=10 / b_pyramid=2 / b_adapt=2 / b_bias=0 / direct=3 / weightb=1 / open_gop=0 / weightp=2 / keyint=250 / keyint_min=23 / scenecut=40 / intra_refresh=0 / rc_lookahead=60 / rc=2pass / mbtree=1 / bitrate=4500 / ratetol=1.0 / qcomp=0.60 / qpmin=0 / qpmax=69 / qpstep=4 / cplxblur=20.0 / qblur=0.5 / ip_ratio=1.40 / aq=1:1.00
Language : Russian
Default : Yes
Forced : No
Audio
ID : 2
Format : AC-3
Format/Info : Audio Coding 3
Mode extension : CM (complete main)
Format settings, Endianness : Big
Codec ID : A_AC3
Duration : 1 h 11 min
Bit rate mode : Constant
Bit rate : 384 kb/s
Channel(s) : 6 channels
Channel positions : Front: L C R, Side: L R, LFE
Sampling rate : 48.0 kHz
Frame rate : 31.250 FPS (1536 spf)
Bit depth : 16 bits
Compression mode : Lossy
Stream size : 195 MiB (8%)
Language : Russian
Default : Yes
Forced : No
Text
ID : 3
Format : UTF-8
Codec ID : S_TEXT/UTF8
Codec ID/Info : UTF-8 Plain Text
Duration : 1 h 9 min
Bit rate : 86 b/s
Count of elements : 724
Stream size : 44.0 KiB (0%)
Language : Russian
Default : No
Forced : No



   Похожие торренты   Торрент   Размер 
В этой теме нет новых непрочитанных сообщений. Приключения Электроника (1979) DVDRip

405 | 25

3.15 ГБ

В этой теме нет новых непрочитанных сообщений. Приключения Электроника (1979) DVDRip

387 | 27

1.46 ГБ

В этой теме нет новых непрочитанных сообщений. Приключения Электроника (1979) DVDRip от MediaClub

280 | 12

1.46 ГБ

В этой теме нет новых непрочитанных сообщений. Приключения Электроника (1979) DVDRip от MediaClub

88 | 4

2.91 ГБ

В этой теме нет новых непрочитанных сообщений. Приключения Электроника [01-03 из 03] (1979) DVDRip от GeneralFilm

588 | 26

1.75 ГБ

В этой теме нет новых непрочитанных сообщений. Приключения Электроника (1979) DVDRip-AVC от UAGet

136 | 13

2.05 ГБ

В этой теме нет новых непрочитанных сообщений. Приключения Электроника (1979) DVDRip от Alekxandr48

6 | 2

2.05 ГБ




Вы не можете начинать темы
Вы не можете отвечать на сообщения
Вы не можете редактировать свои сообщения
Вы не можете удалять свои сообщения
Вы не можете добавлять вложения

Перейти:  
 Вход
ppkBB3cker v.2 © 2008-2014 @ PPK
[ Time : 0.027s | 17 Queries | GZIP : Off ]

cron