img image001 image001 image001 image001 image001 image001 image001 image001 image001 image001 image001 image001 image001 image001 image001 image001

Planets Sun Sun Sun
Статистика раздачи
Автор: Nickolas3434 | Размер: 4.65 ГБ | Добавлен: 06 июн 2017
Раздают: 135    Качают: 6
Скачать торрент
Скачать торрент
Описание торрента

СообщениеДобавлено: 06 июн 2017 

Брат 2
Страна: Россия США
Производство: Кинокомпания CTB
Год выпуска: 2000
Жанр: боевик, криминал
Продолжительность: 02:02:40
Режиссер: Алексей Балабанов
Автор сценария: Алексей Балабанов
В ролях: Сергей Бодров мл., Виктор Сухоруков, Сергей Маковецкий, Ирина Салтыкова, Кирилл Пирогов, Александр Дьяченко, Дарья Юргенс
Описание: Участвуя в программе на телевидении, Данила Багров встречает своих друзей по Чечне. Одного из них внезапно убивают. Данила знает, что у того были неприятности из-за брата-хоккеиста в Америке. Данила должен разобраться. Он вылетает в Америку и для компании берёт с собой брата. Теперь его фотография ходит по рукам русской и американской мафии. Новоявленные «Аль Капоне» понимают, что нарвались на профессионала…

Перевод: не требуется (оригинал)
Субтитры: нет

Качество: WEB-DL 720р
Формат: M4V
Видео кодек: AVC
Аудио кодек: AAC | АС3
Видео №1: 1280@960x720 (16:9), 25.000 fps, MPEG-4 AVC ~4 029 kbps avg
Видео №2: 640x360 (16:9), 0.003 fps, JPEG ~1 167 bps avg
Аудио №1: 48.0 kHz, Advanced Audio Codec LC, 2/0 (L,R) ch, ~163 kbps | RUS / from iTunes
Аудио №2: 48.0 kHz, Advanced Audio Codec LC, 2/0 (L,R) ch, ~165 kbps | RUS / from DVD
Аудио №3: 48.0 kHz, Advanced Audio Codec LC, 2/0 (L,R) ch, ~164 kbps | RUS / Multilanguage from DVD
Аудио №4: 48.0 kHz, AC3 Dolby Digital, 3/2 (L,C,R,l,r) + LFE ch, ~448 kbps | RUS / from DVD
Аудио №5: 48.0 kHz, AC3 Dolby Digital, 3/2 (L,C,R,l,r) + LFE ch, ~448 kbps | RUS / Multilanguage from DVD
Дата премьеры (РФ): 11 мая 2000, «СТВ», «Интерсинема-Арт»
General
Полное имя : Брат 2 (HD).m4v
Формат : MPEG-4
Идентификатор кодека : M4V (M4V /M4A /mp42/isom)
Размер файла : 4,65 Гбайт
Продолжительность : 2 ч. 2 м.
Режим общего битрейта : Переменный
Общий поток : 5428 Кбит/сек
Дата записи : UTC 2000-08-30 08:00:00
Дата кодирования : UTC 2015-12-18 10:33:06
Дата пометки : UTC 2015-12-19 23:33:52
Vendor : Apple:vendor_id:2000-41520
ContentRating : ru-movie|16+|375|
Видео #1
Идентификатор : 1
Формат : AVC
Формат/Информация : Advanced Video Codec
Профиль формата : Main@L3.1
Параметр CABAC формата : Нет
Параметр ReFrames формата : 2 кадра
Параметр GOP формата : M=2, N=90
Идентификатор кодека : avc1
Идентификатор кодека/Информация : Advanced Video Coding
Продолжительность : 2 ч. 2 м.
Битрейт : 4029 Кбит/сек
Ширина : 960 пикселей
Высота : 720 пикселей
Соотношение сторон : 16:9
Режим частоты кадров : Постоянный
Частота кадров : 25,000 кадров/сек
Цветовое пространство : YUV
Субдискретизация насыщенности : 4:2:0
Битовая глубина : 8 бит
Тип развёртки : Прогрессивная
Бит/(Пиксели*Кадры) : 0.233
Размер потока : 3,45 Гбайт (74%)
Заголовок : Main Program
Язык : Russian
Дата кодирования : UTC 2015-12-18 10:33:06
Дата пометки : UTC 2015-12-18 10:36:52
Color range : Limited
Основные цвета : BT.709
Характеристики трансфера : BT.709
Коэффициенты матрицы : BT.709
Menus : 7,8
Видео #2
Идентификатор : 8
Формат : JPEG
Идентификатор кодека : jpeg
Продолжительность : 2 ч. 2 м.
Вид битрейта : Переменный
Битрейт : 1167 бит/сек
Ширина : 640 пикселей
Высота : 360 пикселей
Соотношение сторон : 16:9
Режим частоты кадров : Переменный
Частота кадров : 0,003 кадр/сек
Минимальная частота кадров : 0,002 кадр/сек
Максимальная частота кадров : 0,004 кадр/сек
Цветовое пространство : YUV
Субдискретизация насыщенности : 4:2:0
Битовая глубина : 8 бит
Метод сжатия : С потерями
Бит/(Пиксели*Кадры) : 1.688
Размер потока : 950 Кбайт (0%)
Заголовок : Chapter Images
Язык : Russian
Default : Нет
Дата кодирования : UTC 2015-12-19 21:22:26
Дата пометки : UTC 2015-12-19 21:22:26
Menu For : 1
Аудио #1
Идентификатор : 2
Формат : AAC
Формат/Информация : Advanced Audio Codec
Профиль формата : LC
Идентификатор кодека : 40
Продолжительность : 2 ч. 2 м.
Вид битрейта : Переменный
Битрейт : 163 Кбит/сек
Максимальный битрейт : 257 Кбит/сек
Каналы : 2 канала
Расположение каналов : Front: L R
Частота : 48,0 КГц
Частота кадров : 46,875 кадров/сек (1024 spf)
Метод сжатия : С потерями
Размер потока : 143 Мбайт (3%)
Заголовок : Russian from iTunes Stereo
Язык : Russian
Default : Да
Alternate group : 1
Дата кодирования : UTC 2015-12-18 10:33:06
Дата пометки : UTC 2015-12-18 10:36:52
Menus : 7
Аудио #2
Идентификатор : 3
Формат : AAC
Формат/Информация : Advanced Audio Codec
Профиль формата : LC
Идентификатор кодека : 40
Продолжительность : 2 ч. 2 м.
Вид битрейта : Переменный
Битрейт : 165 Кбит/сек
Максимальный битрейт : 246 Кбит/сек
Каналы : 2 канала
Расположение каналов : Front: L R
Частота : 48,0 КГц
Частота кадров : 46,875 кадров/сек (1024 spf)
Метод сжатия : С потерями
Размер потока : 145 Мбайт (3%)
Заголовок : Russian from DVD Stereo
Язык : Russian
Default : Нет
Alternate group : 1
Дата кодирования : UTC 2015-12-19 20:45:31
Дата пометки : UTC 2015-12-19 20:45:37
Fallback From : 5
Аудио #3
Идентификатор : 4
Формат : AAC
Формат/Информация : Advanced Audio Codec
Профиль формата : LC
Идентификатор кодека : 40
Продолжительность : 2 ч. 2 м.
Вид битрейта : Переменный
Битрейт : 164 Кбит/сек
Максимальный битрейт : 226 Кбит/сек
Каналы : 2 канала
Расположение каналов : Front: L R
Частота : 48,0 КГц
Частота кадров : 46,875 кадров/сек (1024 spf)
Метод сжатия : С потерями
Размер потока : 144 Мбайт (3%)
Заголовок : Multilanguage from DVD Stereo
Язык : Russian
Default : Нет
Alternate group : 1
Дата кодирования : UTC 2015-12-19 20:45:31
Дата пометки : UTC 2015-12-19 20:45:37
Fallback From : 6
Аудио #4
Идентификатор : 5
Формат : AC-3
Формат/Информация : Audio Coding 3
Расширение режима : CM (complete main)
Параметр Endianness формата : Big
Идентификатор кодека : ac-3
Продолжительность : 2 ч. 2 м.
Продолжительность оригинала : 2 ч. 2 м.
Вид битрейта : Постоянный
Битрейт : 448 Кбит/сек
Каналы : 6 каналов
Расположение каналов : Front: L C R, Side: L R, LFE
Частота : 48,0 КГц
Частота кадров : 31,250 кадров/сек (1536 spf)
Битовая глубина : 16 бит
Метод сжатия : С потерями
Размер потока : 393 Мбайт (8%)
Размер потока оригинала : 393 Мбайт (8%)
Заголовок : Russian from DVD DD 5.1
Язык : Russian
Default : Нет
Alternate group : 1
Дата кодирования : UTC 2015-12-19 21:21:28
Дата пометки : UTC 2015-12-19 21:21:36
Fallback To : 3
Аудио #5
Идентификатор : 6
Формат : AC-3
Формат/Информация : Audio Coding 3
Расширение режима : CM (complete main)
Параметр Endianness формата : Big
Идентификатор кодека : ac-3
Продолжительность : 2 ч. 2 м.
Продолжительность оригинала : 2 ч. 2 м.
Вид битрейта : Постоянный
Битрейт : 448 Кбит/сек
Каналы : 6 каналов
Расположение каналов : Front: L C R, Side: L R, LFE
Частота : 48,0 КГц
Частота кадров : 31,250 кадров/сек (1536 spf)
Битовая глубина : 16 бит
Метод сжатия : С потерями
Размер потока : 393 Мбайт (8%)
Размер потока оригинала : 393 Мбайт (8%)
Заголовок : Multilanguage from DVD DD 5.1
Язык : Russian
Default : Нет
Alternate group : 1
Дата кодирования : UTC 2015-12-19 21:21:28
Дата пометки : UTC 2015-12-19 21:21:36
Fallback To : 4
Меню #1
00:00:00.000 : 1
00:07:38.000 : 2
00:13:07.000 : 3
00:18:14.000 : 4
00:24:38.000 : 5
00:31:26.999 : 6
00:38:10.000 : 7
00:44:05.000 : 8
00:51:29.000 : 9
00:57:08.000 : 10
01:02:41.000 : 11
01:08:01.000 : 12
01:14:26.000 : 13
01:22:00.000 : 14
01:28:24.000 : 15
01:33:59.000 : 16
01:39:27.000 : 17
01:45:27.000 : 18
01:52:06.000 : 19
01:56:34.000 : 20
Меню #2
Идентификатор : 7
Идентификатор кодека : text
Продолжительность : 2 ч. 2 м.
Заголовок : Chapter Titles
Язык : Russian
Дата кодирования : UTC 2015-12-19 21:22:22
Дата пометки : UTC 2015-12-19 21:22:22
Menu For : 2,1
00:00:00.000 : 1
00:07:38.000 : 2
00:13:07.000 : 3
00:18:14.000 : 4
00:24:38.000 : 5
00:31:26.999 : 6
00:38:10.000 : 7
00:44:05.000 : 8
00:51:29.000 : 9
00:57:08.000 : 10
01:02:41.000 : 11
01:08:01.000 : 12
01:14:26.000 : 13
01:22:00.000 : 14
01:28:24.000 : 15
01:33:59.000 : 16
01:39:27.000 : 17
01:45:27.000 : 18
01:52:06.000 : 19
01:56:34.000 : 20
Вид битрейта : VBR


Дополнительная информация: релиз подготовлен для просмотра на Apple TV, iPad, iPhone, iPod Touch.
Для просмотра данного релиза на компьютере с ОС Windows рекомендуется использовать VLC media player



   Похожие торренты   Торрент   Размер 
В этой теме нет новых непрочитанных сообщений. OST - Брат 1-2 (Музыка К Фильму) & Брат 2 (За Кадром) [3CD] (2000) MP3

263 | 20

419.11 МБ

В этой теме нет новых непрочитанных сообщений. Брат (1997) WEB-DL 720р | ATV

197 | 4

3.15 ГБ

В этой теме нет новых непрочитанных сообщений. Брат 2 (2000) WEB-DLRip

321 | 23

1.46 ГБ

В этой теме нет новых непрочитанных сообщений. OST - Брат (2000) ALAC

109 | 21

1.23 ГБ

В этой теме нет новых непрочитанных сообщений. Брат 2 (2000) WEB-DLRip от Scarabey

353 | 40

1.45 ГБ

В этой теме нет новых непрочитанных сообщений. Брат 2 (2000) WEB-DL 1080p от BLUEBIRD

753 | 39

5.3 ГБ

В этой теме нет новых непрочитанных сообщений. Брат 2 (2000) WEB-DLRip-AVC от NNM-CLUB

161 | 17

2.17 ГБ




Вы не можете начинать темы
Вы не можете отвечать на сообщения
Вы не можете редактировать свои сообщения
Вы не можете удалять свои сообщения
Вы не можете добавлять вложения

Перейти:  
cron
 Вход
ppkBB3cker v.2 © 2008-2014 @ PPK
[ Time : 0.140s | 16 Queries | GZIP : Off ]

cron