img image001 image001 image001 image001 image001 image001 image001 image001 image001 image001 image001 image001 image001 image001 image001

Planets Sun Sun Sun

COVID-19 - Последняя информация о коронавирусе на сайте Минздрава


Статистика раздачи
Автор: Nickolas3434 | Размер: 3.24 ГБ | Добавлен: 11 июн 2017
Раздают: 65    Качают: 13
Скачать торрент
Скачать торрент
Описание торрента

СообщениеДобавлено: 11 июн 2017 

Информация о фильме
Название: Айболит-66
Год выхода: 1966
Жанр: Мюзикл, комедия, приключения, сказка, экранизация
Режиссер: Ролан Быков
В ролях: Олег Ефремов (I), Ролан Быков, Фрунзик Мкртчян, Алексей Смирнов (I), Евгений Васильев (II), Гурген Джанибекян, Руслан Ахметов, Леонид Енгибаров, Фаина Иванова, Зоя Исаева, Людмила Карауш, Лидия Князева, Виктор Комиссаров, Геннадий Крашенинников, Юрий Мартынов, Раднэр Муратов, Владимир Пицек, Владимир Протасенко, Виктория Радунская, Илья Рутберг, Георгиос Совчис, Виолетта Хуснулова, Светлана Швайко, Игорь Ясулович
О фильме:
"Айболит-66", пожалуй, один из самых экспериментальных российских фильмов 60-х. Ну, где еще, скажите на милость, экран превращался то в треугольник, то в ромб, или в иную геометрическую фигуру? А где еще персонаж мог безмятежно повесить свой зонтик за рамкой кадра? Словом, экранизация знаменитой сказки Корнея Чуковского о добром докторе Айболите получила яркую и неординарную трактовку. Олег Ефремов казался идеальным экранным Айболитом, воплощающим абсолютное и наивное Добро, а Бармалей в феерическом исполнении Ролана Быкова в окружении своих экзотичных подручных /Фрунзик Мкртчян и Алексей Смирнов/ представал символом вредного, но не слишком страшного Зла. И все это с песнями, танцами, эксцентрическими трюками и комедийными гэгами! Но... Для детей эта музыкально-комедийная притча о том, что хотя "нормальные герои всегда идут в обход", Добро обязательно должно победить Зло, оказалась слишком сложной и условной по форме и философии. А большинство взрослых зрителей сочли быковского "Айболита-66" слишком театральным и... детским...

Страна: СССР
Студия: Мосфильм
Продолжительность: 01:33:36
Перевод: не требуется
Файл
Кодек: h.264
Качество: DVDRip
Видео: MPEG-4 AVC, 768x352, 4500 Кбит/с, 25.000 кадр/с
Звук: Аудио #1: Русский ( AC3, 6ch, 448 Кбит/с, 48.0 KHz)
Субтитры: русские
Семпл
General
Unique ID : 233495454483027756636699321386366310743 (0xAFA996B96A627DDBB1D1DB0F02229957)
Complete name : Aibolit.66.1966.DVDRip-AVC.mkv
Format : Matroska
Format version : Version 4 / Version 2
File size : 3.24 GiB
Duration : 1 h 33 min
Overall bit rate : 4 950 kb/s
Encoded date : UTC 2017-06-11 07:59:22
Writing application : mkvmerge v7.8.0 ('River Man') 64bit built on Mar 27 2015 16:31:37
Writing library : libebml v1.3.1 + libmatroska v1.4.2
Video
ID : 1
Format : AVC
Format/Info : Advanced Video Codec
Format profile : High@L4.1
Format settings, CABAC : Yes
Format settings, ReFrames : 14 frames
Codec ID : V_MPEG4/ISO/AVC
Duration : 1 h 33 min
Bit rate : 4 500 kb/s
Width : 768 pixels
Height : 352 pixels
Display aspect ratio : 2.2:1
Frame rate mode : Constant
Frame rate : 25.000 FPS
Color space : YUV
Chroma subsampling : 4:2:0
Bit depth : 8 bits
Scan type : Progressive
Bits/(Pixel*Frame) : 0.666
Stream size : 2.94 GiB (91%)
Title : Video-H264
Writing library : x264 core 146 r2538 121396c
Encoding settings : cabac=1 / ref=14 / deblock=1:-3:-3 / analyse=0x3:0x133 / me=umh / subme=11 / psy=1 / psy_rd=1.00:0.00 / mixed_ref=1 / me_range=32 / chroma_me=1 / trellis=2 / 8x8dct=1 / cqm=0 / deadzone=21,11 / fast_pskip=1 / chroma_qp_offset=-2 / threads=6 / lookahead_threads=1 / sliced_threads=0 / nr=0 / decimate=1 / interlaced=0 / bluray_compat=0 / constrained_intra=0 / bframes=10 / b_pyramid=2 / b_adapt=2 / b_bias=0 / direct=3 / weightb=1 / open_gop=0 / weightp=2 / keyint=250 / keyint_min=23 / scenecut=40 / intra_refresh=0 / rc_lookahead=60 / rc=2pass / mbtree=1 / bitrate=4500 / ratetol=1.0 / qcomp=0.60 / qpmin=0 / qpmax=69 / qpstep=4 / cplxblur=20.0 / qblur=0.5 / ip_ratio=1.40 / aq=1:1.00
Language : Russian
Default : Yes
Forced : No
Audio
ID : 2
Format : AC-3
Format/Info : Audio Coding 3
Mode extension : CM (complete main)
Format settings, Endianness : Big
Codec ID : A_AC3
Duration : 1 h 33 min
Bit rate mode : Constant
Bit rate : 448 kb/s
Channel(s) : 6 channels
Channel positions : Front: L C R, Side: L R, LFE
Sampling rate : 48.0 kHz
Frame rate : 31.250 FPS (1536 spf)
Bit depth : 16 bits
Compression mode : Lossy
Stream size : 300 MiB (9%)
Language : Russian
Default : Yes
Forced : No
Text
ID : 3
Format : UTF-8
Codec ID : S_TEXT/UTF8
Codec ID/Info : UTF-8 Plain Text
Duration : 1 h 28 min
Bit rate : 66 b/s
Count of elements : 770
Stream size : 43.0 KiB (0%)
Language : Russian
Default : No
Forced : No

   Похожие торренты   Торрент   Размер 
В этой теме нет новых непрочитанных сообщений. Айболит и Бармалей (1973) DVDRip-AVC

22 | 0

169.35 МБ

В этой теме нет новых непрочитанных сообщений. Тридцать три (1965) DVDRip-AVC | Реставрация

62 | 13

1.86 ГБ

В этой теме нет новых непрочитанных сообщений. Игла (1988) DVDRip-AVC от ExKinoRay | Реставрация

72 | 2

746.04 МБ

В этой теме нет новых непрочитанных сообщений. Жестокий романс (1984) DVDRip-AVC | Реставрация

19 | 0

2.82 ГБ

В этой теме нет новых непрочитанных сообщений. Летучая мышь (1979) DVDRip-AVC | Реставрация

58 | 8

3.2 ГБ

В этой теме нет новых непрочитанных сообщений. Тень (1971) DVDRip-AVC от ExKinoRay | Полная реставрация

28 | 1

746.48 МБ

В этой теме нет новых непрочитанных сообщений. Криминальный квартет (1989) DVDRip-AVC от ImperiaFilm l Реставрация

20 | 0

742.31 МБ




Вы не можете начинать темы
Вы не можете отвечать на сообщения
Вы не можете редактировать свои сообщения
Вы не можете удалять свои сообщения
Вы не можете добавлять вложения

Перейти:  
Контактная информация: rstracker[пёсик]yandex.ru
 Вход
ppkBB3cker v.2 © 2008-2014 @ PPK
[ Time : 0.024s | 16 Queries | GZIP : Off ]

cron