img image001 image001 image001 image001 image001 image001 image001 image001 image001 image001 image001 image001 image001 image001 image001

Planets Sun Sun Sun
Статистика раздачи
Автор: Nickolas3434 | Размер: 2.41 ГБ | Добавлен: 24 июн 2017
Раздают: 36    Качают: 6
Скачать торрент
Скачать торрент
Описание торрента

СообщениеДобавлено: 24 июн 2017 

Информация о фильме
Название: Дуэнья
Год выхода: 1978
Жанр: Комедия, экранизация, музыкальный
Режиссер: Михаил Григорьев
В ролях: Владимир Зельдин, Александр Сафронов, Ирина Муравьёва, Марина Либакова-Ливанова, Евгений Леонов, Татьяна Васильева (I), Семён Фарада, Любовь Полищук, Владимир Сошальский, Ольга Фомичева, Зоя Белая, Юрий Сучков, Анатолий Кубацкий, Николай Горлов, Фёдор Савостьянов, Пётр Меркурьев, Леонид Персиянинов, Виктор Махов, Евгений Быкадоров, Василий Корнуков, Леонид Недович, Рафаил Ракитин, Пётр Складчиков
О фильме:
Экранизация одноимённой классической пьесы английского драматурга Ричарда Б. Шеридана. Две пары влюблённых совсем запутались в интригах. Всё перемешалось: страдания и радости, смех и слёзы. Но молодым героям по душе этот водоворот событий и чувств. Ни в чём не уступает им и далеко не юная дуэнья. Именно благодаря её темпераменту и обаянию всё заканчивается благополучно. В том числе и для неё самой…

Страна: СССР
Студия: ТО "Экран"
Продолжительность: 01:27:26
Перевод: не требуется
Файл
Кодек: h.264
Качество: DVDRip
Видео: MPEG-4 AVC, 768x576, 3500 Кбит/с, 25.000 кадр/с
Звук: Аудио #1: Русский ( AC3, 6ch, 448 Кбит/с, 48.0 KHz)
Субтитры: нет
Семпл
General
Unique ID : 206038859806356173170115557190485709153 (0x9B01A417521D17A6860EDA42B8AC9161)
Complete name : Дуэнья.1978.DVDRip-AVC.mkv
Format : Matroska
Format version : Version 2
File size : 2.41 GiB
Duration : 1 h 27 min
Overall bit rate : 3 950 kb/s
Encoded date : UTC 2017-06-20 19:01:02
Writing application : mkvmerge v7.8.0 ('River Man') 32bit built on Apr 3 2015 12:11:22
Writing library : libebml v1.3.1 + libmatroska v1.4.2
Video
ID : 1
Format : AVC
Format/Info : Advanced Video Codec
Format profile : High@L4.1
Format settings, CABAC : Yes
Format settings, ReFrames : 14 frames
Codec ID : V_MPEG4/ISO/AVC
Duration : 1 h 27 min
Bit rate : 3 500 kb/s
Width : 768 pixels
Height : 576 pixels
Display aspect ratio : 4:3
Frame rate mode : Constant
Frame rate : 25.000 FPS
Color space : YUV
Chroma subsampling : 4:2:0
Bit depth : 8 bits
Scan type : Progressive
Bits/(Pixel*Frame) : 0.316
Stream size : 2.09 GiB (87%)
Writing library : x264 core 146 r2538 121396c
Encoding settings : cabac=1 / ref=14 / deblock=1:-3:-3 / analyse=0x3:0x133 / me=umh / subme=11 / psy=1 / psy_rd=1.00:0.00 / mixed_ref=1 / me_range=32 / chroma_me=1 / trellis=2 / 8x8dct=1 / cqm=0 / deadzone=21,11 / fast_pskip=1 / chroma_qp_offset=-2 / threads=6 / lookahead_threads=1 / sliced_threads=0 / nr=0 / decimate=1 / interlaced=0 / bluray_compat=0 / constrained_intra=0 / bframes=10 / b_pyramid=2 / b_adapt=2 / b_bias=0 / direct=3 / weightb=1 / open_gop=0 / weightp=2 / keyint=250 / keyint_min=23 / scenecut=40 / intra_refresh=0 / rc_lookahead=60 / rc=2pass / mbtree=1 / bitrate=3500 / ratetol=1.0 / qcomp=0.60 / qpmin=0 / qpmax=69 / qpstep=4 / cplxblur=20.0 / qblur=0.5 / ip_ratio=1.40 / aq=1:1.00
Default : Yes
Forced : No
Audio
ID : 2
Format : AC-3
Format/Info : Audio Coding 3
Mode extension : CM (complete main)
Format settings, Endianness : Big
Codec ID : A_AC3
Duration : 1 h 27 min
Bit rate mode : Constant
Bit rate : 448 kb/s
Channel(s) : 6 channels
Channel positions : Front: L C R, Side: L R, LFE
Sampling rate : 48.0 kHz
Frame rate : 31.250 FPS (1536 spf)
Bit depth : 16 bits
Compression mode : Lossy
Stream size : 280 MiB (11%)
Default : Yes
Forced : No

   Похожие торренты   Торрент   Размер 
В этой теме нет новых непрочитанных сообщений. Улица страха. Часть 2: 1978 / Fear Street Part Two: 1978 (2021) WEB-DLRip-AVC от ExKinoRay | Пифагор

0 | 0

741.07 МБ

В этой теме нет новых непрочитанных сообщений. Беда (1978) DVDRip-AVC

15 | 2

170.21 МБ

В этой теме нет новых непрочитанных сообщений. Однофамилец (1978) DVDRip-AVC

11 | 6

2.74 ГБ

В этой теме нет новых непрочитанных сообщений. Фелисити / Felicity (1978) DVDRip-AVC | A

16 | 4

2.05 ГБ

В этой теме нет новых непрочитанных сообщений. Щелкунчик / The Nutcracker (1978) DVDRip-AVC от KORSAR

5 | 0

2.07 ГБ

В этой теме нет новых непрочитанных сообщений. Старомодная комедия (1978) DVDRip-AVC от KORSAR

22 | 1

1.24 ГБ

В этой теме нет новых непрочитанных сообщений. Кровать на площади / Il letto in piazza (1978) DVDRip-AVC | А

30 | 0

1.97 ГБ




Вы не можете начинать темы
Вы не можете отвечать на сообщения
Вы не можете редактировать свои сообщения
Вы не можете удалять свои сообщения
Вы не можете добавлять вложения

Перейти:  
Контактная информация: rstracker[пёсик]yandex.ru
 Вход
ppkBB3cker v.2 © 2008-2014 @ PPK
[ Time : 0.027s | 20 Queries | GZIP : Off ]

cron