img image001 image001 image001 image001 image001 image001 image001 image001 image001 image001 image001 image001 image001 image001 image001

Planets Sun Sun Sun

COVID-19 - Последняя информация о коронавирусе на сайте Минздрава


Статистика раздачи
Автор: Nickolas3434 | Размер: 1.45 ГБ | Добавлен: 03 июл 2017
Раздают: 37    Качают: 1
Скачать торрент
Скачать торрент
Описание торрента

СообщениеДобавлено: 03 июл 2017 

Информация о фильме
Название: Абориген
Год выхода: 1988
Жанр: Драма
Режиссёр: Елена Николаева
В ролях: Владислав Галкин, Александр Негреба, Александр Яковлев, Надежда Маркина, Валерий Баринов, Жанна Эппле, Александр Миронов, Олег Штефанко, Виктор Незнанов, Владимир Скляров, Татьяна Чернопятова, Олег Демидов, Анна Золотарева, Олег Щербинин, Ксения Шароватова, Геннадий Матвеев, Владимир Смирнов
О фильме: Простой сургутский паренек Борька Хромов рано стал взрослым. Жизнь заставила его полагаться только на себя. Отец его умер, мать живет с ненавистным отчимом, а друзья - сегодня они друзья, а завтра кто знает? Борька мечтает убежать из этого мрачного мира, где он никому не нужен, но сделать это не так-то просто. Пока же он браконьерствует и ищет приключений на свою отчаянную голову. И этой ночью юный смельчак снова отправится на реку за добычей, в дикие края...

Страна: СССР
Студия: К/ст. им.М.Горького
Продолжительность: 02:06:11
Перевод: Не требуется (оригинальный)
Файл
Формат: avi
Качество: DVDRip (DVD5)
Видео: XviD, 688х528, 25fps, 1445kbps
Аудио: AC3 Dolby Digital, 2ch, 48000Hz, 192kbps

Общее
Полное имя : Aborigen.1988.O.DVDRip.1400.CurHaJI.avi
Формат : AVI
Формат/Информация : Audio Video Interleave
Размер файла : 1,45 Гбайт
Продолжительность : 2 ч. 6 м.
Общий поток : 1646 Кбит/сек
Название фильма : Aborigen.1988.O.DVDRip.1400.CurHaJI
Программа кодирования : VirtualDubMod 1.5.10.3 | www.virtualdub-fr.org || (build 2550/release)
Библиотека кодирования : VirtualDub build 35491/release
Видео
Идентификатор : 0
Формат : MPEG-4 Visual
Профиль формата : Advanced Simple@L5
Параметр BVOP формата : 1
Параметр QPel формата : Нет
Параметр GMC формата : Без точки перехода
Параметр матрицы формата : Выборочная
Идентификатор кодека : XVID
Идентификатор кодека/Подсказка : XviD
Продолжительность : 2 ч. 6 м.
Битрейт : 1445 Кбит/сек
Ширина : 688 пикселей
Высота : 528 пикселей
Соотношение сторон : 4:3
Частота кадров : 25,000 кадров/сек
Цветовое пространство : YUV
Субдискретизация насыщенности : 4:2:0
Битовая глубина : 8 бит
Тип развёртки : Прогрессивная
Метод сжатия : С потерями
Бит/(Пиксели*Кадры) : 0.159
Размер потока : 1,27 Гбайт (88%)
Библиотека кодирования : XviD 73
Аудио
Идентификатор : 1
Формат : AC-3
Формат/Информация : Audio Coding 3
Расширение режима : CM (complete main)
Параметр Endianness формата : Big
Идентификатор кодека : 2000
Продолжительность : 2 ч. 6 м.
Вид битрейта : Постоянный
Битрейт : 192 Кбит/сек
Каналы : 2 канала
Расположение каналов : Front: L R
Частота : 48,0 КГц
Частота кадров : 31,250 кадров/сек (1536 spf)
Битовая глубина : 16 бит
Метод сжатия : С потерями
Размер потока : 173 Мбайт (12%)
Выравнивание : Разделение по промежуткам
Продолжительность промежутка : 40 мс. (1,00 видеокадр)
Время предзагрузки промежутка : 500 мс.


Релиз от:

   Похожие торренты   Торрент   Размер 
В этой теме нет новых непрочитанных сообщений. Абориген (1988) DVDRip

2 | 0

745.62 МБ

В этой теме нет новых непрочитанных сообщений. Абориген (1988) DVDRip от Scarabey

22 | 0

1.45 ГБ

В этой теме нет новых непрочитанных сообщений. Various Artists - Club Top 13 International - Juli-August 1988 [Vinyl-Rip 24-bit] (1988) WAV

0 | 0

1.88 ГБ

В этой теме нет новых непрочитанных сообщений. Отец / En Far (1988) DVDRip | L1

1 | 0

2.18 ГБ

В этой теме нет новых непрочитанных сообщений. Заря / The Dawning (1988) DVDRip | P

58 | 18

1.46 ГБ

В этой теме нет новых непрочитанных сообщений. Катушка / Tapeheads (1988) DVDRip | P2

0 | 0

1.46 ГБ

В этой теме нет новых непрочитанных сообщений. 32-е декабря (1988) DVDRip-AVC

6 | 1

177.95 МБ




Вы не можете начинать темы
Вы не можете отвечать на сообщения
Вы не можете редактировать свои сообщения
Вы не можете удалять свои сообщения
Вы не можете добавлять вложения

Перейти:  
Контактная информация: rstracker[пёсик]yandex.ru
 Вход
ppkBB3cker v.2 © 2008-2014 @ PPK
[ Time : 0.027s | 15 Queries | GZIP : Off ]

cron