img image001 image001 image001 image001 image001 image001 image001 image001 image001 image001 image001 image001 image001 image001 image001

Planets Sun Sun Sun
Статистика раздачи
Автор: Nickolas3434 | Размер: 3.37 ГБ | Добавлен: 09 июл 2017
Раздают: 138    Качают: 9
Скачать торрент
Скачать торрент
Описание торрента

СообщениеДобавлено: 09 июл 2017 

Оригинальное название: Ночные стражи
Год выпуска: 2016
Жанр: Фэнтези, боевик
Выпущено: Россия, Марс Медиа Энтертейнмент
Режиссер: Эмилис Веливис
В ролях: Иван Янковский, Любовь Аксёнова, Леонид Ярмольник, Михаил Евланов, Сабина Ахмедова, Константин Адаев, Юрий Ваксман, Алексей Дмитриев, Денис Бузин, Евгений Косырев
Описание: Вам нравятся «Сумерки» и хочется увидеть кино любимого жанра с сюжетом из российской жизни? Эта картина для тех зрителей, которые и после «Темного мира: Равновесия» верят в русских кинематографистов, в то, что они подарят интересное городское фэнтези о парне-курьере и вампирше-красавице, волею судьбы оказавшихся в эпицентре борьбы вампирских кланов. Иван Янковский и Любовь Аксенова сумеют воплотить задуманное режиссером, на экране. В центре сюжета – Москва оккультная. Паша Смольников специально поступает в тайный отдел «Н», чтобы очистить столицу от нечисти. Тем более он хорошо знает, на что способны лешие, русалки, домовые и их сородичи, не относящиеся к породе людей. Однажды, когда Павел еще был курьером, ему довелось спасать в одном из отелей постоялицу Дану от преступников со сверхъестественными способностями. Позже парень выяснил: в городе начался передел власти между вампирскими семействами, и Дана – одна из них. Проверьте себя на прочность вместе с главным героем …

Формат: MKV
Качество: BDRip 720p
Видео: MPEG-4 AVC, 1280x534 (2.40:1), 4150 Kbit/s, 23.976 fps, 0,253 bpp
Звук:
Аудио: 48 kHz, AC3, 5.1, 640 Kbps | RUS
Продолжительность: 01:41:01
Язык: Русский
General
Unique ID : 250511805541415568544590686390491822415 (0xBC76D19B01D9152A9C8BBD0DAD6C394F)
Complete name : D:Nochniegvardy.2016.BDRip.720p.ExKinoRay.mkv
Format : Matroska
Format version : Version 2
File size : 3.37 GiB
Duration : 1 h 41 min
Overall bit rate : 4 782 kb/s
Movie name : Ночные стражи (2016) from ExKinoRay
Encoded date : UTC 2017-07-09 13:00:24
Writing application : mkvmerge v5.6.0 ('Kenya Kane') built on May 27 2012 16:44:04
Writing library : libebml v1.2.3 + libmatroska v1.3.0
Video
ID : 1
Format : AVC
Format/Info : Advanced Video Codec
Format profile : High@L4.1
Format settings, CABAC : Yes
Format settings, ReFrames : 11 frames
Codec ID : V_MPEG4/ISO/AVC
Duration : 1 h 41 min
Bit rate : 4 150 kb/s
Width : 1 280 pixels
Height : 534 pixels
Display aspect ratio : 2.40:1
Frame rate mode : Constant
Frame rate : 23.976 (24000/1001) FPS
Color space : YUV
Chroma subsampling : 4:2:0
Bit depth : 8 bits
Scan type : Progressive
Bits/(Pixel*Frame) : 0.253
Stream size : 2.86 GiB (85%)
Title : Enigma
Writing library : x264 core 144 r2525 40bb568
Encoding settings : cabac=1 / ref=11 / deblock=1:-2:-2 / analyse=0x3:0x113 / me=umh / subme=10 / psy=1 / psy_rd=1.00:0.05 / mixed_ref=1 / me_range=32 / chroma_me=1 / trellis=2 / 8x8dct=1 / cqm=0 / deadzone=21,11 / fast_pskip=1 / chroma_qp_offset=-3 / threads=12 / lookahead_threads=3 / sliced_threads=0 / nr=0 / decimate=0 / interlaced=0 / bluray_compat=0 / constrained_intra=0 / bframes=11 / b_pyramid=2 / b_adapt=2 / b_bias=0 / direct=3 / weightb=1 / open_gop=0 / weightp=2 / keyint=240 / keyint_min=23 / scenecut=40 / intra_refresh=0 / rc_lookahead=40 / rc=2pass / mbtree=0 / bitrate=4150 / ratetol=1.0 / qcomp=0.62 / qpmin=0 / qpmax=51 / qpstep=4 / cplxblur=20.0 / qblur=0.5 / vbv_maxrate=50000 / vbv_bufsize=62500 / nal_hrd=none / filler=0 / ip_ratio=1.40 / pb_ratio=1.30 / aq=1:1.00
Language : English
Default : Yes
Forced : No
Color range : Limited
Color primaries : BT.709
Transfer characteristics : BT.709
Matrix coefficients : BT.709
Audio
ID : 2
Format : AC-3
Format/Info : Audio Coding 3
Mode extension : CM (complete main)
Format settings, Endianness : Big
Codec ID : A_AC3
Duration : 1 h 41 min
Bit rate mode : Constant
Bit rate : 640 kb/s
Channel(s) : 6 channels
Channel positions : Front: L C R, Side: L R, LFE
Sampling rate : 48.0 kHz
Frame rate : 31.250 FPS (1536 spf)
Compression mode : Lossy
Stream size : 462 MiB (13%)
Title : Лицензия
Language : Russian
Default : Yes
Forced : No
Menu
00:00:00.000 : :Chapter 01
00:08:31.761 : :Chapter 02
00:16:33.158 : :Chapter 03
00:24:32.971 : :Chapter 04
00:34:38.326 : :Chapter 05
00:44:11.857 : :Chapter 06
00:52:39.614 : :Chapter 07
01:01:05.203 : :Chapter 08
01:09:50.352 : :Chapter 09
01:19:00.819 : :Chapter 10
01:26:46.075 : :Chapter 11
01:33:54.962 : :Chapter 12
01:41:01.180 : :Chapter 13


Релиз от:
Автор релиза:



   Похожие торренты   Торрент   Размер 
В этой теме нет новых непрочитанных сообщений. Ночные стражи (2016) BDRip 720p от KinoGadget | iPad | Лицензия

16 | 3

2.54 ГБ

В этой теме нет новых непрочитанных сообщений. Ночные стражи (2016) BDRip от HQCLUB | Лицензия

397 | 29

1.45 ГБ

В этой теме нет новых непрочитанных сообщений. Ночные стражи (2016) BDRip-HEVC от SuperMin | Лицензия

17 | 0

966.74 МБ

В этой теме нет новых непрочитанных сообщений. Ночные стражи (2016) BDRip 1080p от OlLanDGroup | GER Transfer | Лицензия

75 | 11

10.56 ГБ

В этой теме нет новых непрочитанных сообщений. Ночные стражи (2016) HDTVRip-AVC от ExKinoRay

11 | 0

1.47 ГБ

В этой теме нет новых непрочитанных сообщений. Ночные стражи (2016) WEB-DLRip от ExKinoRay | iTunes

25 | 0

1.46 ГБ

В этой теме нет новых непрочитанных сообщений. Ночные стражи (2016) HDRip от ImperiaFilm | Лицензия

63 | 6

745.64 МБ




Вы не можете начинать темы
Вы не можете отвечать на сообщения
Вы не можете редактировать свои сообщения
Вы не можете удалять свои сообщения
Вы не можете добавлять вложения

Перейти:  
Для Мосгорсуда, Роскомнадзора и рекламодателей: mosgorsud-torrent[собачка]yandex.ru
 Вход
ppkBB3cker v.2 © 2008-2014 @ PPK
[ Time : 0.041s | 18 Queries | GZIP : Off ]

cron