img image001 image001 image001 image001 image001 image001 image001 image001 image001 image001 image001 image001 image001 image001 image001 image001

Planets Sun Sun Sun
Статистика раздачи
Автор: Nickolas3434 | Размер: 1.74 ГБ | Добавлен: 11 июл 2017
Раздают: 44    Качают: 9
Скачать торрент
Скачать торрент
Описание торрента

СообщениеДобавлено: 11 июл 2017 

Информация о фильме
Название: Дело № 306
Год выхода: 1956
Жанр: криминал, детектив, приключения
Режиссер: Анатолий Рыбаков
В ролях: Борис Битюков, Марк Бернес, Татьяна Пилецкая, Константин Нассонов, Ада Войцик, Максим Штраух, Людмила Шагалова, Евгений Весник, Валентина Токарская, Евгений Тетерин, Н.Хощанов, Софья Фадеева, Владимир Ратомский, Анастасия Зуева, Виктор Колпаков...
О фильме:
На одной из московских улиц произошло дорожно-транспортное происшествие: сбита пожилая женщина, а затем и постовой милиционер, пытавшийся задержать машину. Женщина без сознания, документов у неё не обнаружено, а постовой милиционер скончался.
Но есть случайный свидетель — молодая хозяйка дорого автомобиля. И она может помочь — если поймет, как важны её показания: ведь в ходе следствия неожиданно выясняется, что в этой, казалось бы, обычной аварии замешаны агенты иностранной разведки…

Страна: СССР
Студия: Мосфильм
Продолжительность: 01:16:15
Перевод: не требуется
Файл
Кодек: h.264
Качество: TVRip
Видео: MPEG-4 AVC, 768x568, 3000 Кбит/с, 25.000 кадр/с
Звук: Аудио #1: Русский ( AC3, 2ch, 256 Кбит/с, 48.0 KHz)
Субтитры: нет
Семпл
General
Unique ID : 201722764310837934902229145611245675472 (0x97C2642753B0F3D9B509CF2D833B63D0)
Complete name : Delo.306.1956.TVRip-AVC.mkv
Format : Matroska
Format version : Version 2
File size : 1.74 GiB
Duration : 1 h 16 min
Overall bit rate : 3 258 kb/s
Encoded date : UTC 2017-07-06 20:37:24
Writing application : mkvmerge v7.8.0 ('River Man') 32bit built on Apr 3 2015 12:11:22
Writing library : libebml v1.3.1 + libmatroska v1.4.2
Video
ID : 1
Format : AVC
Format/Info : Advanced Video Codec
Format profile : High@L4.1
Format settings, CABAC : Yes
Format settings, ReFrames : 14 frames
Codec ID : V_MPEG4/ISO/AVC
Duration : 1 h 16 min
Bit rate : 3 000 kb/s
Width : 768 pixels
Height : 568 pixels
Display aspect ratio : 4:3
Frame rate mode : Constant
Frame rate : 25.000 FPS
Color space : YUV
Chroma subsampling : 4:2:0
Bit depth : 8 bits
Scan type : Progressive
Bits/(Pixel*Frame) : 0.275
Stream size : 1.56 GiB (90%)
Writing library : x264 core 146 r2538 121396c
Encoding settings : cabac=1 / ref=14 / deblock=1:0:0 / analyse=0x3:0x133 / me=umh / subme=11 / psy=1 / psy_rd=1.00:0.00 / mixed_ref=1 / me_range=32 / chroma_me=1 / trellis=2 / 8x8dct=1 / cqm=0 / deadzone=21,11 / fast_pskip=1 / chroma_qp_offset=-2 / threads=6 / lookahead_threads=1 / sliced_threads=0 / nr=0 / decimate=1 / interlaced=0 / bluray_compat=0 / constrained_intra=0 / bframes=10 / b_pyramid=2 / b_adapt=2 / b_bias=0 / direct=3 / weightb=1 / open_gop=0 / weightp=2 / keyint=250 / keyint_min=23 / scenecut=40 / intra_refresh=0 / rc_lookahead=60 / rc=2pass / mbtree=1 / bitrate=3000 / ratetol=1.0 / qcomp=0.60 / qpmin=0 / qpmax=69 / qpstep=4 / cplxblur=20.0 / qblur=0.5 / ip_ratio=1.40 / aq=1:1.00
Default : Yes
Forced : No
Audio
ID : 2
Format : AC-3
Format/Info : Audio Coding 3
Mode extension : CM (complete main)
Format settings, Endianness : Big
Codec ID : A_AC3
Duration : 1 h 16 min
Bit rate mode : Constant
Bit rate : 256 kb/s
Channel(s) : 2 channels
Channel positions : Front: L R
Sampling rate : 48.0 kHz
Frame rate : 31.250 FPS (1536 spf)
Bit depth : 16 bits
Compression mode : Lossy
Stream size : 140 MiB (8%)
Default : Yes
Forced : No




   Похожие торренты   Торрент   Размер 
В этой теме нет новых непрочитанных сообщений. Дело № 306 (1956) DVDRip от Alekxandr48

7 | 5

699.75 МБ

В этой теме нет новых непрочитанных сообщений. Дело № 306 (1956) DVDRip от Youtracker

30 | 6

1.42 ГБ

В этой теме нет новых непрочитанных сообщений. Дело № 306 (1956) DVDRip от Youtracker

2 | 5

742.78 МБ

В этой теме нет новых непрочитанных сообщений. Дело № 306 (1956) DVDRip-AVC от Youtracker

71 | 16

1.46 ГБ

В этой теме нет новых непрочитанных сообщений. Мальва (1956) TVRip

24 | 7

1.23 ГБ

В этой теме нет новых непрочитанных сообщений. Наш двор (1956) TVRip

1 | 3

1.36 ГБ

В этой теме нет новых непрочитанных сообщений. Миколка-паровоз (1956) TVRip

91 | 21

1.37 ГБ




Вы не можете начинать темы
Вы не можете отвечать на сообщения
Вы не можете редактировать свои сообщения
Вы не можете удалять свои сообщения
Вы не можете добавлять вложения

Перейти:  
 Вход
ppkBB3cker v.2 © 2008-2014 @ PPK
[ Time : 0.022s | 17 Queries | GZIP : Off ]

cron