img image001 image001 image001 image001 image001 image001 image001 image001 image001 image001 image001 image001 image001 image001 image001 image001

Planets Sun Sun Sun
Статистика раздачи
Автор: Nickolas3434 | Размер: 1.09 ГБ | Добавлен: 10 авг 2017
Раздают: 1    Качают: 2
Скачать торрент
Скачать торрент
Описание торрента

СообщениеДобавлено: 10 авг 2017 


Мы "В КОНТАКТЕ"


Страна: СССР
Производство: Мосфильм

Жанр: драма
Год выпуска: 1958
Продолжительность: 01:39:58

Перевод: Не требуется
Cубтитры: нет
Оригинальная аудиодорожка: русский

Режиссер: Владимир Каплуновский

В ролях:
Олег Стриженов, Сергей Лукьянов, Ия Арепина, Владимир Дорофеев, Ирина Зарубина, Анатолий Шишков, Вячеслав Шалевич, Павел Павленко, Борис Новиков, Лев Золотухин, Никифор Колофидин, Сергей Блинников, Владимир Соловьёв, Александра Денисова, Александр Гумбург, Юрий Катин-Ярцев, Сергей Троицкий, Павел Шпрингфельд, Варвара Мясникова...
Об актёрах подробней

Описание:
По одноименной повести А.С.Пушкина.
«Береги платье снову, а честь — смолоду» — напутствовал старик Гринев своего Петрушу (Олег Стриженов), отправляя служить в дальнюю Оренбургскую крепость. Здесь герой встретил и полюбил Машу...





Источник: DVD5 R5
Качество видео: DVDRip
Формат видео: AVI

Видео: 720x304 (2,35:1), 25 fps, XviD ~ 1102 kbps avg, 0.201 bit/pixel
Аудио: 48 kHz, Dolby Digital AC3 5.1, 448 kbps

Раздача от:
Общее
Полное имя : Kapitanskaya.dochka.1958.DVDRip_[New-team]_by_AVP_Studio.avi
Формат : AVI
Формат/Информация : Audio Video Interleave
Размер файла : 1,09 Гбайт
Продолжительность : 1 ч. 39 м.
Общий поток : 1559 Кбит/сек
Программа кодирования : VirtualDubMod 1.5.10.3 | www.virtualdub-fr.org || (build 2550/release)
Библиотека кодирования : VirtualDubMod build 2550/release

Видео
Идентификатор : 0
Формат : MPEG-4 Visual
Профиль формата : Advanced Simple@L5
Параметр BVOP формата : 1
Параметр QPel формата : Нет
Параметр GMC формата : Без точки перехода
Параметр матрицы формата : Выборочная
Идентификатор кодека : XVID
Идентификатор кодека/Подсказка : XviD
Продолжительность : 1 ч. 39 м.
Битрейт : 1102 Кбит/сек
Ширина : 720 пикселей
Высота : 304 пикселя
Соотношение сторон : 2,35:1
Частота кадров : 25,000 кадров/сек
Цветовое пространство : YUV
Субдискретизация насыщенности : 4:2:0
Битовая глубина : 8 бит
Тип развёртки : Прогрессивная
Метод сжатия : С потерями
Бит/(Пиксели*Кадры) : 0.201
Размер потока : 788 Мбайт (71%)
Библиотека кодирования : XviD 73

Аудио
Идентификатор : 1
Формат : AC-3
Формат/Информация : Audio Coding 3
Параметр Endianness формата : Big
Идентификатор кодека : 2000
Продолжительность : 1 ч. 39 м.
Вид битрейта : Постоянный
Битрейт : 448 Кбит/сек
Каналы : 6 каналов
Расположение каналов : Front: L C R, Side: L R, LFE
Частота : 48,0 КГц
Частота кадров : 31,250 кадров/сек (1536 SPF)
Битовая глубина : 16 бит
Метод сжатия : С потерями
Задержка видео : 16 мс.
Размер потока : 320 Мбайт (29%)
Выравнивание : Разделение по промежуткам
Продолжительность промежутка : 40 мс. (1,00 видеокадр)
Время предзагрузки промежутка : 500 мс





   Похожие торренты   Торрент   Размер 
В этой теме нет новых непрочитанных сообщений. Капитанская дочка (1958) DVDRip от New-Team

1 | 3

745.3 МБ

В этой теме нет новых непрочитанных сообщений. Капитанская дочка (1958) DVDRip-AVC от New-Team

42 | 2

1.25 ГБ

В этой теме нет новых непрочитанных сообщений. Александр Пушкин - Капитанская дочка (чит. Иннокентий Смоктуновский) (2005) MP3

185 | 12

314.85 МБ

В этой теме нет новых непрочитанных сообщений. Пусть говорят - Капитанская дочка [эфир от 30.10] (2013) HDTVRip от MediaClub

0 | 1

769.39 МБ

В этой теме нет новых непрочитанных сообщений. Фатима (1958) DVDRip-AVC от New-Team

18 | 1

1.09 ГБ

В этой теме нет новых непрочитанных сообщений. Дружок (1958) DVDRip от New-Team-AVC

11 | 1

744.67 МБ

В этой теме нет новых непрочитанных сообщений. Мамлюк (1958) DVDRip-AVC от New-Team

38 | 1

1.46 ГБ




Вы не можете начинать темы
Вы не можете отвечать на сообщения
Вы не можете редактировать свои сообщения
Вы не можете удалять свои сообщения
Вы не можете добавлять вложения

Перейти:  
 Вход
ppkBB3cker v.2 © 2008-2014 @ PPK
[ Time : 0.034s | 17 Queries | GZIP : Off ]

cron