img image001 image001 image001 image001 image001 image001 image001 image001 image001 image001 image001 image001 image001 image001 image001 image001

Planets Sun Sun Sun
Статистика раздачи
Автор: Nickolas3434 | Размер: 744.82 МБ | Добавлен: 28 авг 2017
Раздают: 5    Качают: 0
Скачать торрент
Скачать торрент
Описание торрента

СообщениеДобавлено: 28 авг 2017 

Страна: СССР
Производство: Ялтинская киностудия
Жанр: драма
Год выпуска: 1958
Продолжительность: 01:24:24
Перевод: Не требуется
Cубтитры: нет
Оригинальная аудиодорожка: русский
Режиссер: Мечислава Маевская
В ролях:
Нина Антонова, Анатолий Федоринов, Сережа Остапенко, Алексей Грибов, Павел Усовниченко, Дмитрий Капка, А. Теремец, Николай Муравьёв (II), Касим Мухутдинов, Валерик Овчинников, Вова Смирнов, Витя Яремык-Федоров, Вова Кунин, Таня Батурова, Саша Зотов...
Об актёрах подробней
Описание:
По одноименной повести Аркадия Гайдара.
Натку, мечтающую стать капитаном, посылают на пионерскую работу. Она весьма серьезно относится к первому поручению - и получает путевку в Крым. В Артеке Натку просят подменить заболевшую пионервожатую. Девушка соглашается. Вскоре на строительстве водопровода прорывается плотина и начинается борьба за воду. В эту борьбу включается и инженер Ганин (Анатолий Федоринов), приехавший на отдых с маленьким сыном Алькой. В развалинах старой крепости Владик и Толик находят динамит. Чтобы выследить врагов, ребята перепрятывают взрывчатку и клянутся не раскрывать своей "военной тайны"...





Источник: DVB
Качество видео: SATRip
Формат видео: AVI
Видео: 640x480 (4:3), 25 fps, XviD ~ 1096 kbps avg, 0.143 bit/pixel
Аудио: 48 kHz, MP3 2.0, 128 kbps
Раздача от:
Общее
Полное имя : Voennaya.tayna.1958.SATRip-745_[New-team]_by_AVP_Studio.avi
Формат : AVI
Формат/Информация : Audio Video Interleave
Размер файла : 745 Мбайт
Продолжительность : 1 ч. 24 м.
Общий поток : 1234 Кбит/сек
Программа кодирования : VirtualDubMod 1.5.10.3 | www.virtualdub-fr.org || (build 2550/release)
Библиотека кодирования : VirtualDubMod build 2550/release
Видео
Идентификатор : 0
Формат : MPEG-4 Visual
Профиль формата : Advanced Simple@L5
Параметр BVOP формата : 1
Параметр QPel формата : Нет
Параметр GMC формата : Без точки перехода
Параметр матрицы формата : Выборочная
Идентификатор кодека : XVID
Идентификатор кодека/Подсказка : XviD
Продолжительность : 1 ч. 24 м.
Битрейт : 1096 Кбит/сек
Ширина : 640 пикселей
Высота : 480 пикселей
Соотношение сторон : 4:3
Частота кадров : 25,000 кадров/сек
Цветовое пространство : YUV
Субдискретизация насыщенности : 4:2:0
Битовая глубина : 8 бит
Тип развёртки : Прогрессивная
Метод сжатия : С потерями
Бит/(Пиксели*Кадры) : 0.143
Размер потока : 662 Мбайт (89%)
Библиотека кодирования : XviD 73
Аудио
Идентификатор : 1
Формат : MPEG Audio
Версия формата : Version 1
Профиль формата : Layer 3
Идентификатор кодека : 55
Идентификатор кодека/Подсказка : MP3
Продолжительность : 1 ч. 24 м.
Вид битрейта : Постоянный
Битрейт : 128 Кбит/сек
Каналы : 2 канала
Частота : 48,0 КГц
Метод сжатия : С потерями
Размер потока : 77,3 Мбайт (10%)
Выравнивание : Соединение по промежуткам
Продолжительность промежутка : 40 мс. (1,00 видеокадр)
Время предзагрузки промежутка : 504 мс.
Библиотека кодирования : LAME3.99r
Настройки программы : -m s -V 4 -q 2 -lowpass 17 -b 128





   Похожие торренты   Торрент   Размер 
В этой теме нет новых непрочитанных сообщений. Военная тайна (1958) SATRip-AVC от New-Team

17 | 2

1.09 ГБ

В этой теме нет новых непрочитанных сообщений. Военная тайна (1958) SATRip от New-Team

2 | 1

1.13 ГБ

В этой теме нет новых непрочитанных сообщений. Военная тайна [эфир от 15.10] (2011) SATRip

1 | 2

724.81 МБ

В этой теме нет новых непрочитанных сообщений. Военная тайна [эфир от 08.10] (2011) SATRip

1 | 2

631.75 МБ

В этой теме нет новых непрочитанных сообщений. Военная тайна [эфир от 24.09] (2011) SATRip

1 | 1

631.47 МБ

В этой теме нет новых непрочитанных сообщений. Военная тайна [эфир от 26.02] (2011) SATRip by xottabi4

1 | 2

475.45 МБ

В этой теме нет новых непрочитанных сообщений. Военная тайна [Эфир от 19.03] (2011) SATRip от xottabi4

1 | 1

583.18 МБ




Вы не можете начинать темы
Вы не можете отвечать на сообщения
Вы не можете редактировать свои сообщения
Вы не можете удалять свои сообщения
Вы не можете добавлять вложения

Перейти:  
 Вход
ppkBB3cker v.2 © 2008-2014 @ PPK
[ Time : 0.021s | 17 Queries | GZIP : Off ]

cron