img image001 image001 image001 image001 image001 image001 image001 image001 image001 image001 image001 image001 image001 image001 image001

Planets Sun Sun Sun
Статистика раздачи
Автор: Nickolas3434 | Размер: 745.82 МБ | Добавлен: 02 сен 2017
Раздают: 72    Качают: 9
Скачать торрент
Скачать торрент
Описание торрента

СообщениеДобавлено: 02 сен 2017 

Информация о фильме
Название: Вдребезги
Год выхода: 2011
Жанр: Черная комедия
Режиссер: Роман Каримов
В ролях: Никита Дювбанов, Артем Ткаченко, Равшана Куркова, Иван Николаев, Александр Плющев, Александр Дульщиков, Кристина Казурова, Евгения Абрамова, Павел Дикан, Тимур Крючков
О фильме :
Что делать с людьми, которые нам так мешают в нашей жизни? Может их убить? А можем ли мы убить? А кто может убить? …Две девушки-маньячки сбивают велосипедиста, убивают педофила, угоняют машину у гламурного подонка… Известный ди-джей ведет скандальное шоу, где прикалывается над слушателями. После очередного эфира ди-джея похищают… Жена, мечтающая порвать с мужем, приглашает на день рождения босса-любовника. Пока она ходила за сигаретами, в доме происходит убийство… Пути героев этих историй, составляющих абсурдно-жестокую черную комедию, пересекаются на загородном шоссе, когда судьба сама расставляет все точки над Ё…

Страна: Россия, Синема-Прайм, Парадиз
Продолжительность: 01:32:55
Перевод: Не требуется [Оригинал]
Файл
Формат: MKV
Качество: HDTVRip-AVC
Видео: MPEG-4 AVC, 752x320, ~ 1049 Кбит/с
Аудио: AAC-LC, 2 ch, ~72 Кбит/с
Общее
Уникальный идентификатор : 194642438272900869603768571626866470848 (0x926EC520CE6104F7A16859C8957DEFC0)
Полное имя : D:MOVIESVdrebezgi.2011.ExKinoRay.mkv
Формат : Matroska
Версия формата : Version 2
Размер файла : 746 Мбайт
Продолжительность : 1 ч. 32 м.
Общий поток : 1122 Кбит/сек
Дата кодирования : UTC 2017-09-01 19:37:33
Программа кодирования : mkvmerge v15.0.0 ('Duel with the Devil') 64-bit
Библиотека кодирования : libebml v1.3.5 + libmatroska v1.4.5
Видео
Идентификатор : 1
Формат : AVC
Формат/Информация : Advanced Video Codec
Профиль формата : High@L4.1
Параметр CABAC формата : Да
Параметр RefFrames формата : 10 кадров
Идентификатор кодека : V_MPEG4/ISO/AVC
Продолжительность : 1 ч. 32 м.
Битрейт : 1049 Кбит/сек
Ширина : 752 пикселя
Высота : 320 пикселей
Соотношение сторон : 2,35:1
Режим частоты кадров : Постоянный
Частота кадров : 24,000 кадра/сек
Цветовое пространство : YUV
Субдискретизация насыщенности : 4:2:0
Битовая глубина : 8 бит
Тип развёртки : Прогрессивная
Бит/(Пиксели*Кадры) : 0.182
Размер потока : 697 Мбайт (93%)
Библиотека кодирования : x264 core 152 r2851kMod ba24899
Настройки программы : cabac=1 / ref=10 / deblock=1:-2:-2 / analyse=0x3:0x113 / me=umh / subme=11 / psy=1 / fade_compensate=0.00 / psy_rd=1.00:0.10 / mixed_ref=1 / me_range=32 / chroma_me=1 / trellis=2 / 8x8dct=1 / cqm=0 / deadzone=21,11 / fast_pskip=0 / chroma_qp_offset=-3 / threads=6 / lookahead_threads=1 / sliced_threads=0 / nr=0 / decimate=0 / interlaced=0 / bluray_compat=0 / constrained_intra=0 / bframes=10 / b_pyramid=2 / b_adapt=2 / b_bias=0 / direct=3 / weightb=1 / open_gop=0 / weightp=2 / keyint=240 / keyint_min=23 / scenecut=40 / intra_refresh=0 / rc_lookahead=40 / rc=2pass / mbtree=1 / bitrate=1049 / ratetol=1.0 / qcomp=0.60 / qpmin=0 / qpmax=69 / qpstep=4 / cplxblur=20.0 / qblur=0.5 / vbv_maxrate=50000 / vbv_bufsize=62500 / nal_hrd=none / filler=0 / ip_ratio=1.40 / aq=3:1.00
Default : Да
Forced : Нет
Аудио
Идентификатор : 2
Формат : AAC
Формат/Информация : Advanced Audio Codec
Профиль формата : LC
Идентификатор кодека : A_AAC
Продолжительность : 1 ч. 32 м.
Битрейт : 72,0 Кбит/сек
Каналы : 2 канала
Расположение каналов : Front: L R
Частота : 48,0 КГц
Частота кадров : 46,875 кадров/сек (1024 SPF)
Метод сжатия : С потерями
Задержка видео : 9 мс.
Размер потока : 47,9 Мбайт (6%)
Язык : Russian
Default : Да
Forced : Нет


Релиз от:



   Похожие торренты   Торрент   Размер 
В этой теме нет новых непрочитанных сообщений. Вдребезги (2011) HDTVRip 1080p

10 | 13

12.65 ГБ

В этой теме нет новых непрочитанных сообщений. Вдребезги (2011) HDTVRip от MegaPeer

167 | 10

744.34 МБ

В этой теме нет новых непрочитанных сообщений. Вдребезги (2011) HDTVRip-AVC от potroks

69 | 5

1.46 ГБ

В этой теме нет новых непрочитанных сообщений. Вдребезги (2011) HDTVRip 720p от Leonardo

305 | 12

2.75 ГБ

В этой теме нет новых непрочитанных сообщений. Вдребезги (2011) DVDRip

13 | 5

746.16 МБ

В этой теме нет новых непрочитанных сообщений. Вдребезги (2011) DVD9

1 | 2

6.39 ГБ

В этой теме нет новых непрочитанных сообщений. Вдребезги (2011) DVDRip | Лицензия

85 | 6

1.38 ГБ




Вы не можете начинать темы
Вы не можете отвечать на сообщения
Вы не можете редактировать свои сообщения
Вы не можете удалять свои сообщения
Вы не можете добавлять вложения

Перейти:  
Для Мосгорсуда, Роскомнадзора и рекламодателей: mosgorsud-torrent[собачка]yandex.ru
 Вход
ppkBB3cker v.2 © 2008-2014 @ PPK
[ Time : 0.041s | 16 Queries | GZIP : Off ]

cron