img image001 image001 image001 image001 image001 image001 image001 image001 image001 image001 image001 image001 image001 image001 image001 image001

Planets Sun Sun Sun
Статистика раздачи
Автор: Nickolas3434 | Размер: 745.18 МБ | Добавлен: 09 окт 2017
Раздают: 4    Качают: 0
Скачать торрент
Скачать торрент
Описание торрента

СообщениеДобавлено: 09 окт 2017 


Мы "В КОНТАКТЕ"


Страна: СССР
Производство: Одесская киностудия
Жанр: драма
Год выпуска: 1958
Продолжительность: 01:23:31
Перевод: Не требуется
Cубтитры: нет
Оригинальная аудиодорожка: русский
Режиссер: Феликс Миронер
В ролях:
Владимир Земляникин, Любовь Стриженова, Николай Ключнев, Инга Будкевич, Лев Борисов, Сергей Курилов, Павел Волков, Александр Лебедев, Николай Сморчков, Евгений Тетерин, Станислав Хитров...
Об актёрах подробней
Описание:
На месте старой окраины - новостройка. Сюда прибывает большая группа выпускников ремесленного училища. Заводила и душа группы - веселый плотник Иван (Владимир Земляникин). Демобилизовавшегося из армии Сергея Назаренко выдвигают в комсорги. Вскоре на стройку прибывает группа девушек из села - и начинается интересная жизнь: сплачивается молодежный коллектив, зарождаются симпатии и любовь, образуются семьи...





Источник: DVB
Качество видео: SATRip
Формат видео: AVI
Видео: 640x480 (4:3), 25 fps, XviD ~ 1110 kbps avg, 0.144 bit/pixel
Аудио: 48 kHz, MP3 2.0, 128 kbps
Раздача от:
Общее
Полное имя : Ulica.molodosti.1958.SATRip-745_[New-team]_by_AVP_Studio.avi
Формат : AVI
Формат/Информация : Audio Video Interleave
Размер файла : 745 Мбайт
Продолжительность : 1 ч. 23 м.
Общий поток : 1247 Кбит/сек
Программа кодирования : VirtualDubMod 1.5.10.3 | www.virtualdub-fr.org || (build 2550/release)
Библиотека кодирования : VirtualDubMod build 2550/release
Видео
Идентификатор : 0
Формат : MPEG-4 Visual
Профиль формата : Advanced Simple@L5
Параметр BVOP формата : 1
Параметр QPel формата : Нет
Параметр GMC формата : Без точки перехода
Параметр матрицы формата : Выборочная
Идентификатор кодека : XVID
Идентификатор кодека/Подсказка : XviD
Продолжительность : 1 ч. 23 м.
Битрейт : 1110 Кбит/сек
Ширина : 640 пикселей
Высота : 480 пикселей
Соотношение сторон : 4:3
Частота кадров : 25,000 кадров/сек
Цветовое пространство : YUV
Субдискретизация насыщенности : 4:2:0
Битовая глубина : 8 бит
Тип развёртки : Прогрессивная
Метод сжатия : С потерями
Бит/(Пиксели*Кадры) : 0.144
Размер потока : 663 Мбайт (89%)
Библиотека кодирования : XviD 73
Аудио
Идентификатор : 1
Формат : MPEG Audio
Версия формата : Version 1
Профиль формата : Layer 3
Идентификатор кодека : 55
Идентификатор кодека/Подсказка : MP3
Продолжительность : 1 ч. 23 м.
Вид битрейта : Постоянный
Битрейт : 128 Кбит/сек
Каналы : 2 канала
Частота : 48,0 КГц
Метод сжатия : С потерями
Размер потока : 76,5 Мбайт (10%)
Выравнивание : Соединение по промежуткам
Продолжительность промежутка : 40 мс. (1,00 видеокадр)
Время предзагрузки промежутка : 504 мс.
Библиотека кодирования : LAME3.99r
Настройки программы : -m s -V 4 -q 2 -lowpass 17 -b 128





   Похожие торренты   Торрент   Размер 
В этой теме нет новых непрочитанных сообщений. Улица молодости (1958) SATRip от New-Team

15 | 0

1.09 ГБ

В этой теме нет новых непрочитанных сообщений. Улица молодости (1958) SATRip-AVC от New-Team

3 | 0

1.09 ГБ

В этой теме нет новых непрочитанных сообщений. Растеряева улица (1959) SATRip от New-Team

6 | 0

2.18 ГБ

В этой теме нет новых непрочитанных сообщений. Растеряева улица (1959) SATRip-AVC от New-Team

10 | 1

2.18 ГБ

В этой теме нет новых непрочитанных сообщений. Лавина с гор (1958) SATRip от New-Team

0 | 2

1.09 ГБ

В этой теме нет новых непрочитанных сообщений. По ту сторону (1958) SATRip от New-Team

8 | 0

1.09 ГБ

В этой теме нет новых непрочитанных сообщений. По ту сторону (1958) SATRip-AVC от New-Team

12 | 0

1.09 ГБ




Вы не можете начинать темы
Вы не можете отвечать на сообщения
Вы не можете редактировать свои сообщения
Вы не можете удалять свои сообщения
Вы не можете добавлять вложения

Перейти:  
 Вход
ppkBB3cker v.2 © 2008-2014 @ PPK
[ Time : 3.344s | 15 Queries | GZIP : Off ]

cron