img image001 image001 image001 image001 image001 image001 image001 image001 image001 image001 image001 image001 image001 image001 image001 image001

Planets Sun Sun Sun
Статистика раздачи
Автор: Nickolas3434 | Размер: 1.09 ГБ | Добавлен: 17 окт 2017
Раздают: 5    Качают: 0
Скачать торрент
Скачать торрент
Описание торрента

СообщениеДобавлено: 17 окт 2017 


Мы "В КОНТАКТЕ"


Страна: СССР
Производство: Беларусьфильм
Жанр: драма
Год выпуска: 1958
Продолжительность: 01:23:12
Перевод: Не требуется
Cубтитры: нет
Оригинальная аудиодорожка: русский
Режиссер: Иосиф Шульман
В ролях:
Константин Скоробогатов, Юрий Саранцев, Данута Столярская, Виталий Полицеймако, Нина Дорошина, Борис Кудрявцев, Владимир Иванов, Дзидра Ритенберга, Степан Хацкевич, Алексей Барановский...
Об актёрах подробней
Описание:
Вернувшись в родное село по окончании срока воинской службы, Виктор (Юрий Саранцев) привел в дом невесту — и вскоре сыграли свадьбу. Виктор с большим энтузиазмом работает в колхозе, его назначают бригадиром, но счастье старого Данилы, отца Виктора, омрачает грязная сплетня — будто бы отцом Виктора является не он, а Шандыбович, неблаговидные дела которого были недавно разоблачены Виктором. Между отцом и сыном назревает разлад. Вначале отец, а затем и сын покидают дом. И только весть о будущем ребенке вновь соединяет семью.





Источник: DVD5 R5
Качество видео: DVDRip
Формат видео: AVI
Видео: 704x528 (4:3), 25 fps, XviD ~ 1674 kbps avg, 0.180 bit/pixel
Аудио: 48 kHz, Dolby Digital AC3 2.0, 192 kbps
Раздача от:
Общее
Полное имя : Schaste.nado.berech.1958.DVDRip_[New-team]_by_AVP_Studio.avi
Формат : AVI
Формат/Информация : Audio Video Interleave
Размер файла : 1,09 Гбайт
Продолжительность : 1 ч. 23 м.
Общий поток : 1875 Кбит/сек
Программа кодирования : VirtualDubMod 1.5.10.3 | www.virtualdub-fr.org || (build 2550/release)
Библиотека кодирования : VirtualDubMod build 2550/release
Видео
Идентификатор : 0
Формат : MPEG-4 Visual
Профиль формата : Advanced Simple@L5
Параметр BVOP формата : 1
Параметр QPel формата : Нет
Параметр GMC формата : Без точки перехода
Параметр матрицы формата : Выборочная
Идентификатор кодека : XVID
Идентификатор кодека/Подсказка : XviD
Продолжительность : 1 ч. 23 м.
Битрейт : 1674 Кбит/сек
Ширина : 704 пикселя
Высота : 528 пикселей
Соотношение сторон : 4:3
Частота кадров : 25,000 кадров/сек
Цветовое пространство : YUV
Субдискретизация насыщенности : 4:2:0
Битовая глубина : 8 бит
Тип развёртки : Прогрессивная
Метод сжатия : С потерями
Бит/(Пиксели*Кадры) : 0.180
Размер потока : 996 Мбайт (89%)
Библиотека кодирования : XviD 73
Аудио
Идентификатор : 1
Формат : AC-3
Формат/Информация : Audio Coding 3
Параметр Endianness формата : Big
Идентификатор кодека : 2000
Продолжительность : 1 ч. 23 м.
Вид битрейта : Постоянный
Битрейт : 192 Кбит/сек
Каналы : 2 канала
Расположение каналов : Front: L R
Частота : 48,0 КГц
Частота кадров : 31,250 кадров/сек (1536 SPF)
Битовая глубина : 16 бит
Метод сжатия : С потерями
Размер потока : 114 Мбайт (10%)
Выравнивание : Разделение по промежуткам
Продолжительность промежутка : 40 мс. (1,00 видеокадр)
Время предзагрузки промежутка : 500 мс





   Похожие торренты   Торрент   Размер 
В этой теме нет новых непрочитанных сообщений. Счастье надо беречь DVDRip-AVC от New-Team

6 | 0

1.09 ГБ

В этой теме нет новых непрочитанных сообщений. Счастье надо беречь DVDRip от New-Team

4 | 0

745.34 МБ

В этой теме нет новых непрочитанных сообщений. Любовью надо дорожить (1959) DVDRip-AVC от New-Team

8 | 0

1.09 ГБ

В этой теме нет новых непрочитанных сообщений. Любовью надо дорожить (1959) DVDRip от New-Team

2 | 0

745.65 МБ

В этой теме нет новых непрочитанных сообщений. Любовью надо дорожить (1959) DVDRip от New-Team

0 | 2

1.09 ГБ

В этой теме нет новых непрочитанных сообщений. Трудное счастье (1958) DVDRip от New-Team

3 | 0

745.25 МБ

В этой теме нет новых непрочитанных сообщений. Трудное счастье (1958) DVDRip от New-Team

1 | 0

1.09 ГБ




Вы не можете начинать темы
Вы не можете отвечать на сообщения
Вы не можете редактировать свои сообщения
Вы не можете удалять свои сообщения
Вы не можете добавлять вложения

Перейти:  
 Вход
ppkBB3cker v.2 © 2008-2014 @ PPK
[ Time : 0.036s | 15 Queries | GZIP : Off ]

cron