img image001 image001 image001 image001 image001 image001 image001 image001 image001 image001 image001 image001 image001 image001 image001 image001

Planets Sun Sun Sun
Статистика раздачи
Автор: Nickolas3434 | Размер: 1.09 ГБ | Добавлен: 29 окт 2017
Раздают: 6    Качают: 0
Скачать торрент
Скачать торрент
Описание торрента

СообщениеДобавлено: 29 окт 2017 


Мы "В КОНТАКТЕ"


Страна: СССР
Производство: к/с им. М.Горького
Жанр: драма
Год выпуска: 1959
Продолжительность: 01:33:56
Перевод: Не требуется
Cубтитры: нет
Оригинальная аудиодорожка: русский
Режиссер: Лев Кулиджанов
В ролях:
Вера Кузнецова, Людмила Марченко, Николай Новлянский, Валентин Зубков, Нонна Мордюкова, Люсьена Овчинникова, Петр Кирюткин, Пётр Алейников, Елена Максимова...
Об актёрах подробней
Описание:
Приемная дочь доктора Скворцова, узнав, что ее мать Наталья Авдеевна жива, поехала к ней в деревню на каникулы. Женщина не знала, как приблизить к себе дочь. Встречи в колхозе с интересными людьми заставили Таню о многом подумать и многое пережить. Она даже объяснилась в любви председателю колхоза - доброму и чуткому Сергею Ивановичу (Валентин Зубков), который, впрочем, дал понять ей, что это всего лишь детское увлечение. Уезжая, она знала, что после окончания института вернется.





Источник: DVB
Качество видео: SATRip
Формат видео: AVI
Видео: 688x512 (4:3), 25 fps, XviD ~ 1457 kbps avg, 0.165 bit/pixel
Аудио: 48 kHz, Dolby Digital AC3 2.0, 192 kbps
Раздача от:
Общее
Полное имя : Otchiy.dom.1959.SATRip_[New-team]_by_AVP_Studio.avi
Формат : AVI
Формат/Информация : Audio Video Interleave
Размер файла : 1,09 Гбайт
Продолжительность : 1 ч. 33 м.
Общий поток : 1658 Кбит/сек
Программа кодирования : VirtualDubMod 1.5.10.3 | www.virtualdub-fr.org || (build 2550/release)
Библиотека кодирования : VirtualDubMod build 2550/release
Видео
Идентификатор : 0
Формат : MPEG-4 Visual
Профиль формата : Advanced Simple@L5
Параметр BVOP формата : 1
Параметр QPel формата : Нет
Параметр GMC формата : Без точки перехода
Параметр матрицы формата : Выборочная
Идентификатор кодека : XVID
Идентификатор кодека/Подсказка : XviD
Продолжительность : 1 ч. 33 м.
Битрейт : 1457 Кбит/сек
Ширина : 688 пикселей
Высота : 512 пикселей
Соотношение сторон : 4:3
Частота кадров : 25,000 кадров/сек
Цветовое пространство : YUV
Субдискретизация насыщенности : 4:2:0
Битовая глубина : 8 бит
Тип развёртки : Прогрессивная
Метод сжатия : С потерями
Бит/(Пиксели*Кадры) : 0.165
Размер потока : 979 Мбайт (88%)
Библиотека кодирования : XviD 73
Аудио
Идентификатор : 1
Формат : AC-3
Формат/Информация : Audio Coding 3
Параметр Endianness формата : Big
Идентификатор кодека : 2000
Продолжительность : 1 ч. 33 м.
Вид битрейта : Постоянный
Битрейт : 192 Кбит/сек
Каналы : 2 канала
Расположение каналов : Front: L R
Частота : 48,0 КГц
Частота кадров : 31,250 кадров/сек (1536 SPF)
Битовая глубина : 16 бит
Метод сжатия : С потерями
Размер потока : 129 Мбайт (12%)
Выравнивание : Разделение по промежуткам
Продолжительность промежутка : 40 мс. (1,00 видеокадр)
Время предзагрузки промежутка : 500 мс





   Похожие торренты   Торрент   Размер 
В этой теме нет новых непрочитанных сообщений. Отчий дом (1959) SATRip от New-Team

8 | 0

744.81 МБ

В этой теме нет новых непрочитанных сообщений. Отчий дом (1959) SATRip-AVC от New-Team

10 | 0

1.09 ГБ

В этой теме нет новых непрочитанных сообщений. Отчий дом (1959) DVDRip

152 | 18

1.37 ГБ

В этой теме нет новых непрочитанных сообщений. Сверстницы (1959) SATRip от New-Team

4 | 0

1.09 ГБ

В этой теме нет новых непрочитанных сообщений. Колыбельная (1959) SATRip от New-Team

2 | 0

745.22 МБ

В этой теме нет новых непрочитанных сообщений. Сын Иристона (1959) SATRip от New-Team

5 | 0

1.09 ГБ

В этой теме нет новых непрочитанных сообщений. Сын Иристона (1959) SATRip от New-Team

4 | 0

745.67 МБ




Вы не можете начинать темы
Вы не можете отвечать на сообщения
Вы не можете редактировать свои сообщения
Вы не можете удалять свои сообщения
Вы не можете добавлять вложения

Перейти:  
 Вход
ppkBB3cker v.2 © 2008-2014 @ PPK
[ Time : 0.029s | 15 Queries | GZIP : Off ]

cron