img image001 image001 image001 image001 image001 image001 image001 image001 image001 image001 image001 image001 image001 image001 image001 image001

Planets Sun Sun Sun
Статистика раздачи
Автор: Nickolas3434 | Размер: 1.45 ГБ | Добавлен: 05 ноя 2017
Раздают: 145    Качают: 2
Скачать торрент
Скачать торрент
Описание торрента

СообщениеДобавлено: 05 ноя 2017 

Информация о фильме
Название: Джентльмены удачи
Год выхода: 1971
Жанр: комедия, криминал, детектив
Режиссер: Александр Серый
В ролях: Евгений Леонов, Георгий Вицин, Савелий Крамаров, Раднэр Муратов, Эраст Гарин, Наталья Фатеева, Олег Видов, Николай Олялин, Анатолий Папанов, Любовь Соколова, Павел Шпрингфельд, Екатерина Мазурова, Владимир Уан-Зо-Ли, Анатолий Яббаров, Наталья Воробьёва, Алексей Ванин, Зоя Василькова, Вячеслав Гостинский, Александр Лебедев, Галина Микеладзе, Владимир Протасенко, Роман Филиппов, Светлана Старикова, Александр Лукьянов, Коля Данелия, Оля Серая, Наташа Токарева, Юрий Потёмкин, Николай Сморчков, Иван Турченков, Георгий Данелия, Виктория Токарева
О фильме:
Заведующему детсадом Трошкину фатально не повезло: он оказался как две капли воды похож на бандита по кличке «Доцент», похитившего уникальный шлем Александра Македонского.
Милиция внедряет добряка Трошкина в воровскую среду — и ему ничего не остается, кроме как старательно изображать своего двойника-злодея, путая всех окружающих. Со временем он настолько блестяще входит в роль, что сам начинает порой приходить в ужас. Между тем, жизни его угрожает смертельная опасность…

Страна: СССР
Продолжительность: 01:26:43
Файл
Кодек: H.264
Качество: BDRip-AVC (Исходник: Blu-ray 1080p)
Видео: High@L4.1, x264, 760x576; 23.976 fps; ~1946 kbps
Звук: AC3, 6 ch, 448 Кбит/с
General
Unique ID : 226435706591517024432230446207023327388 (0xAA59EE479E48B2D79C1375F64A36289C)
Complete name : F:FILMSДжентльмены удачи.1971.BDRIP-AVC.[-=DoMiNo=-].mkv
Format : Matroska
Format version : Version 4 / Version 2
File size : 1.45 GiB
Duration : 1 h 26 min
Overall bit rate : 2 398 kb/s
Movie name : Джентльмены удачи
Deion : Заведующему детсадом Трошкину фатально не повезло: он оказался как две капли воды похож на бандита по кличке «Доцент», похитившего уникальный шлем Александра Македонского. Милиция внедряет добряка Трошкина в воровскую среду — и ему ничего не остается, кроме как старательно изображать своего двойника-злодея, путая всех окружающих. Со временем он настолько блестяще входит в роль, что сам начинает порой приходить в ужас. Между тем, жизни его угрожает смертельная опасность…
Полная реставрация изображения и звука. Исходные киноматериалы подготовлены Госфильмофондом России. Покадровая цифровая реставрация изображения, ремастеринг звука и авторинг проведены объединением «Крупный план».
Writing application : XviD4PSP 7.0.417 DAILY
Writing library : Lavf57.71.100
ErrorDetectionType : Per level 1
Attachments : poster.jpg
ACTORS : Евгений Леонов, Георгий Вицин, Раднэр Муратов, Савелий Крамаров, Наталья Фатеева, Эраст Гарин, Николай Олялин, Анатолий Папанов, Павел Шпрингфельд, Любовь Соколова, Олег Видов, Алексей Ванин, Наталья Воробьева, Зоя Василькова, Галина Микеладзе, Роман Филиппов, Владимир Протасенко, Владимир Уан-Зо-Ли, Анатолий Яббаров, Александр Лукьянов, Екатерина Мазурова, Вячеслав Гостинский, Александр Лебедев, Лариса Любомудрова, Светлана Старикова, Наталия Токарева, Борис Гитин, Мейер Голдовский, Ольга Серая, Николай Данелия
COMPOSER : Геннадий Гладков
COUNTRY : СССР
DATE : 1971
DIRECTOR : Александр Серый
ENCODING_INFO : BluRay > MKV Произвольный / H264 > X264 VBR-2P 1946kbps Произвольный / AC3 > COPY Безопасное
GENRE : драма, комедия, криминал, детектив
HD_VIDEO : 1
IMDB_RATING : 8.60
ITUNEXTC : ru-movie|0+|100|
Language : und
MEDIA_TYPE : 9
PRODUCER : Александра Демидова
RATING : 8.522
WRITER : Георгий Данелия, Виктория Токарева
Video
ID : 1
Format : AVC
Format/Info : Advanced Video Codec
Format profile : High@L4.1
Format settings : CABAC / 11 Ref Frames
Format settings, CABAC : Yes
Format settings, RefFrames : 11 frames
Codec ID : V_MPEG4/ISO/AVC
Duration : 1 h 26 min
Bit rate : 1 946 kb/s
Width : 760 pixels
Height : 576 pixels
Display aspect ratio : 4:3
Frame rate mode : Constant
Frame rate : 23.976 (24000/1001) FPS
Color space : YUV
Chroma subsampling : 4:2:0
Bit depth : 8 bits
Scan type : Progressive
Bits/(Pixel*Frame) : 0.185
Stream size : 1.15 GiB (79%)
Title : BDRIP_AVC_576p_[Blu-Ray]
Writing library : x264 core 152 r2851M ba24899
Encoding settings : cabac=1 / ref=11 / deblock=1:-3:-3 / analyse=0x3:0x133 / me=umh / subme=11 / psy=1 / psy_rd=1.00:0.05 / mixed_ref=1 / me_range=64 / chroma_me=1 / trellis=2 / 8x8dct=1 / cqm=0 / deadzone=21,11 / fast_pskip=1 / chroma_qp_offset=-3 / threads=6 / lookahead_threads=1 / sliced_threads=0 / nr=0 / decimate=1 / interlaced=0 / bluray_compat=0 / constrained_intra=0 / bframes=12 / b_pyramid=2 / b_adapt=2 / b_bias=0 / direct=3 / weightb=1 / open_gop=0 / weightp=2 / keyint=230 / keyint_min=23 / scenecut=40 / intra_refresh=0 / rc_lookahead=60 / rc=2pass / mbtree=1 / bitrate=1946 / ratetol=1.0 / qcomp=0.65 / qpmin=0 / qpmax=69 / qpstep=4 / cplxblur=20.0 / qblur=0.5 / ip_ratio=1.40 / aq=1:1.00
Default : Yes
Forced : No
Color range : Limited
Color primaries : BT.709
Transfer characteristics : BT.709
Matrix coefficients : BT.709
Audio
ID : 2
Format : AC-3
Format/Info : Audio Coding 3
Format settings, Endianness : Big
Codec ID : A_AC3
Duration : 1 h 26 min
Bit rate mode : Constant
Bit rate : 448 kb/s
Channel(s) : 6 channels
Channel positions : Front: L C R, Side: L R, LFE
Sampling rate : 48.0 kHz
Frame rate : 31.250 FPS (1536 SPF)
Bit depth : 16 bits
Compression mode : Lossy
Stream size : 278 MiB (19%)
Language : Russian
Service kind : Complete Main
Default : Yes
Forced : No
Menu
00:00:00.000 : :Глава 1
00:07:36.956 : :Глава 2
00:14:13.227 : :Глава 3
00:17:12.573 : :Глава 4
00:24:43.064 : :Глава 5
00:29:42.489 : :Глава 6
00:33:08.277 : :Глава 7
00:39:24.653 : :Глава 8
00:42:40.182 : :Глава 9
00:48:23.901 : :Глава 10
00:58:45.396 : :Глава 11
01:03:47.698 : :Глава 12
01:04:44.755 : :Глава 13
01:14:36.930 : :Глава 14
01:20:04.508 : :Глава 15
01:24:35.403 : :Глава 16
01:26:43.198 : :Глава 17



   Похожие торренты   Торрент   Размер 
В этой теме нет новых непрочитанных сообщений. Джентльмены удачи (1971) BDRip-AVC от HQ-ViDEO

206 | 16

2.05 ГБ

В этой теме нет новых непрочитанных сообщений. Джентльмены удачи (1971) BDRip от MediaClub | КПК

146 | 12

392 МБ

В этой теме нет новых непрочитанных сообщений. Джентльмены удачи (1971) BDRip-AVC от R.G. HD-Films | 60 fps

335 | 18

2.51 ГБ

В этой теме нет новых непрочитанных сообщений. Джентльмены удачи (1971) BDRip-AVC от New-Team

195 | 15

744.91 МБ

В этой теме нет новых непрочитанных сообщений. Джентльмены удачи (1971) BDRip-HEVC 1080p от ADVOKAT69

48 | 0

6.7 ГБ

В этой теме нет новых непрочитанных сообщений. Джентльмены удачи (1971) HDRip от Scarabey

539 | 31

745.47 МБ

В этой теме нет новых непрочитанных сообщений. Джентльмены удачи (1971) HDRip 720p от ImperiaFilm | КПК

0 | 0

1.29 ГБ




Вы не можете начинать темы
Вы не можете отвечать на сообщения
Вы не можете редактировать свои сообщения
Вы не можете удалять свои сообщения
Вы не можете добавлять вложения

Перейти:  
 Вход
ppkBB3cker v.2 © 2008-2014 @ PPK
[ Time : 0.032s | 15 Queries | GZIP : Off ]

cron