img image001 image001 image001 image001 image001 image001 image001 image001 image001 image001 image001 image001 image001 image001 image001

Planets Sun Sun Sun
Статистика раздачи
Автор: Nickolas3434 | Размер: 3.88 ГБ | Добавлен: 17 ноя 2017
Раздают: 12    Качают: 5
Скачать торрент
Скачать торрент
Описание торрента

СообщениеДобавлено: 17 ноя 2017 

Информация о фильме
Название: Назад – к счастью, или Кто найдет Синюю птицу
Год выхода: 2011
Жанр: Комедия
Режиссер: Дмитрий Герасимов
В ролях: Ольга Ломоносова, Михаил Пореченков, Поля Полякова, Вадим Колганов, Игорь Верник, Владимир Долинский, Михаил Богдасаров, Вадим Андреев, Кирилл Рубцов, Елена Анищенко, Александр Терешко, Евгений Воскресенский
О фильме:
Нежданные и непрошеные новогодние чудеса обрушиваются на героиню Ольги Ломоносовой («Не родись красивой», «Черные кошки») в лирической комедии «Назад к счастью или кто найдет синюю птицу». Французского рождественского деда Пера-Ноэля сыграл заслуженный артист РФ Михаил Пореченков («Агент национальной безопасности», «Грозовые ворота», «Ликвидация», «Поддубный»). 31 декабря – особенный день для главной героини Марии. Нет, вовсе не потому, что вся страна готовится к встрече Нового года. И дело даже не в том, что сегодня годовщина со дня ее знакомства с любящим и заботливым врачом Сергеем, который готов сделать предложение руки и сердца. Все мысли Марии заняты работой. Если точнее, защитой ее драгоценного рекламного проекта. Проект действительно хорош – настолько, что он дает пропуск на важнейшую командировку в Париж и высшие ступени карьерной лестницы. Правда, этим пропуском воспользуется не автор идеи, а ее циничная соперница Вита. Украв чужие разработки, Вита улетает на презентацию. Но упрямая Маша не дает ей спуска. Вопреки сердечным просьбам Сергея она бросает всё и тоже мчится во Францию. Всюду опоздав, Маша получает шанс загадать новогоднее желание. Она хочет открутить время назад.Для того чтобы узнать, чем закончится ее гонка за эфемерной мечтой.

Страна: Россия
Студия: Кинокомпании "Гера"
Продолжительность: 2 х ~ 00:51:00
Перевод: Не требуется
Файл
Кодек: h.264
Качество: WEB-DLRip 1080p
Видео: MPEG-4 AVC, ~ 5094 Кбит/с, 1916x1076, 25,000 кадр/с
Звук: Русский (AC3, 2 ch, 256 Кбит/с)
Субтитры: Нет
Семпл
General
Unique ID : 222420350199632683927232115266524651444 (0xA75499ECC4D718439349039850219FB4)
Complete name : D:uTorrentNazad.k.schastju.2011.WEB-DLRip.1080pNazad.k.schastju.(01.iz.02).2011.WEB-DLRip.1080p.mkv
Format : Matroska
Format version : Version 4 / Version 2
File size : 1.94 GiB
Duration : 51 min 57 s
Overall bit rate : 5 348 kb/s
Encoded date : UTC 2017-11-17 15:19:31
Writing application : mkvmerge v17.0.0 ('Be Ur Friend') 64-bit
Writing library : libebml v1.3.5 + libmatroska v1.4.8
Video
ID : 1
Format : AVC
Format/Info : Advanced Video Codec
Format profile : High@L4
Format settings : CABAC / 4 Ref Frames
Format settings, CABAC : Yes
Format settings, RefFrames : 4 frames
Codec ID : V_MPEG4/ISO/AVC
Duration : 51 min 57 s
Bit rate : 5 094 kb/s
Width : 1 916 pixels
Height : 1 076 pixels
Display aspect ratio : 16:9
Frame rate mode : Constant
Frame rate : 25.000 FPS
Color space : YUV
Chroma subsampling : 4:2:0
Bit depth : 8 bits
Scan type : Progressive
Bits/(Pixel*Frame) : 0.099
Stream size : 1.85 GiB (95%)
Title : WEB-DLRip by Silverok
Writing library : x264 core 142
Encoding settings : cabac=1 / ref=3 / deblock=1:0:0 / analyse=0x3:0x113 / me=hex / subme=7 / psy=1 / psy_rd=1.00:0.00 / mixed_ref=1 / me_range=16 / chroma_me=1 / trellis=1 / 8x8dct=1 / cqm=0 / deadzone=21,11 / fast_pskip=1 / chroma_qp_offset=-2 / threads=84 / lookahead_threads=8 / sliced_threads=0 / nr=0 / decimate=1 / interlaced=0 / bluray_compat=0 / constrained_intra=0 / bframes=6 / b_pyramid=2 / b_adapt=1 / b_bias=0 / direct=1 / weightb=1 / open_gop=0 / weightp=2 / keyint=50 / keyint_min=26 / scenecut=0 / intra_refresh=0 / rc_lookahead=40 / rc=2pass / mbtree=1 / bitrate=5094 / ratetol=1.0 / qcomp=0.60 / qpmin=0 / qpmax=69 / qpstep=4 / cplxblur=20.0 / qblur=0.5 / vbv_maxrate=7642 / vbv_bufsize=20379 / nal_hrd=none / filler=0 / ip_ratio=1.40 / aq=1:1.00
Default : Yes
Forced : No
Audio
ID : 2
Format : AC-3
Format/Info : Audio Coding 3
Codec ID : A_AC3
Duration : 51 min 57 s
Bit rate mode : Constant
Bit rate : 256 kb/s
Channel(s) : 2 channels
Channel positions : Front: L R
Sampling rate : 48.0 kHz
Frame rate : 31.250 FPS (1536 SPF)
Bit depth : 16 bits
Compression mode : Lossy
Stream size : 95.1 MiB (5%)
Language : Russian
Service kind : Complete Main
Default : Yes
Forced : No


Релиз от: | Silverok



   Похожие торренты   Торрент   Размер 
В этой теме нет новых непрочитанных сообщений. Назад - к счастью, или Кто найдет Синюю птицу (2011) SATRip

46 | 2

1.35 ГБ

В этой теме нет новых непрочитанных сообщений. Назад к счастью, или Кто найдет Синюю птицу (2011) HDTVRip

10 | 3

1.45 ГБ

В этой теме нет новых непрочитанных сообщений. Назад к счастью, или Кто найдет Синюю птицу (2011) HDTVRip 720p

8 | 4

1.98 ГБ

В этой теме нет новых непрочитанных сообщений. Назад к счастью, или Кто найдет Синюю птицу (2011) HDTV 1080i

2 | 2

4.72 ГБ

В этой теме нет новых непрочитанных сообщений. Назад к счастью, или Кто найдет Синюю птицу (2011) SATRip от КинозалSAT

4 | 2

1.56 ГБ

В этой теме нет новых непрочитанных сообщений. Назад к счастью, или Кто найдет Синюю птицу (2011) SATRip от КинозалSAT

3 | 3

700.03 МБ

В этой теме нет новых непрочитанных сообщений. Полина Гагарина - Любовь тебя найдёт [клип] (2015) WEB-DLRip 1080p от Kamikkadze | 60 fps

93 | 7

676.19 МБ




Вы не можете начинать темы
Вы не можете отвечать на сообщения
Вы не можете редактировать свои сообщения
Вы не можете удалять свои сообщения
Вы не можете добавлять вложения

Перейти:  
Для Мосгорсуда, Роскомнадзора и рекламодателей: mosgorsud-torrent[собачка]yandex.ru
 Вход
ppkBB3cker v.2 © 2008-2014 @ PPK
[ Time : 1.975s | 17 Queries | GZIP : Off ]

cron