img image001 image001 image001 image001 image001 image001 image001 image001 image001 image001 image001 image001 image001 image001 image001

Planets Sun Sun Sun
Статистика раздачи
Автор: Nickolas3434 | Размер: 9.75 ГБ | Добавлен: 26 ноя 2017
Раздают: 11    Качают: 0
Скачать торрент
Скачать торрент
Описание торрента

СообщениеДобавлено: 26 ноя 2017 

Информация о фильме
Название: Посредник
Год выхода: 1990
Жанр: фантастика, боевик
Режиссер: Владимир Потапов
В ролях: Олеся Судзиловская, Андрей Тарасенко, Денис Членов, Инара Слуцка, Валерий Сторожик, Олегар Федоро, Альгис Матулёнис, Евгений Редько, Олег Филипенко, Виллор Кузнецов, Даша Сидорина, Станислав Житарев, Валерия Устинова, Иван Пилипенко, Дмитрий Матвеев, Алексей Казанцев, Юрий Брешин, Ян Янакиев
О фильме:
На Землю, в маленький городок прибывает десант пришельцев, которые внедряют разумы своих соплемеников в тела людей, полностью подавляя волю последних. Используют они для этого специальные устройства - "Посредники". Цель оккупантов - подготовить плацдарм и захватить радиообсерваторию, чтобы дать на орбиту сигнал основным силам и кораблям к массовому вторжению...

Производство: СССР / к/ст. им. М. Горького, ТВК
Продолжительность: 3 x ~ 01:10:00
Перевод: не требуется (оригинал)
Файл
Качество: HDTVRip 1080p
Формат: MKV
Видео: MPEG-4 AVC, 1440x1080 (4:3), 25.000 fps, ~5800 kbps, 0.15 bit/pixel
Аудио: русский, AC3 5.1, 48 kHz, 448 kbps
Фильм был показан по ТВ во время фактического распада СССР. Это придало ему дополнительный смысл, который, скорее всего, и не был заложен в нем создателями фильма.
Кадры из фильма были использованы в заставке телепрограммы «Телескоп» («мы должны захватить, телеграф, телефон, телескоп…»)
Телескоп из фильма — антенна ТНА-1500 (РТ-64) в Центре космической связи ОКБ МЭИ «Медвежьи озера».
Сцены в помещениях снимались на Пущинской радиоастрономической обсерватории АКЦ ФИАН.
По одной из начальных задумок планировалось телескоп взорвать, был построен макет.
В массовке покидания инопланетянами тел землян в конце фильма участвовали, в том числе, работники ОКБ.
Александр Мирер критиковал режиссёра Владимира Потапова за то, что картина построена вопреки логике текста, однако свою фамилию с титров не снял.
Фильм снят по первой части романа Александра Мирера "Дом скитальцев", которая называется "Главный полдень".
Формат : Matroska
Версия формата : Version 2
Размер файла : 3,31 Гбайт
Продолжительность : 1 ч. 14 м.
Режим общего битрейта : Переменный
Общий поток : 6366 Кбит/сек
Программа кодирования : Lavf54.63.104
Библиотека кодирования : Lavf54.63.104
Видео
Идентификатор : 1
Формат : AVC
Формат/Информация : Advanced Video Codec
Профиль формата : High@L4.1
Параметр CABAC формата : Да
Параметр ReFrames формата : 3 кадра
Параметр GOP формата : M=3, N=33
Идентификатор кодека : V_MPEG4/ISO/AVC
Продолжительность : 1 ч. 14 м.
Вид битрейта : Переменный
Битрейт : 5792 Кбит/сек
Максимальный битрейт : 19,2 Мбит/сек
Ширина : 1440 пикселей
Высота : 1080 пикселей
Соотношение сторон : 4:3
Режим частоты кадров : Постоянный
Частота кадров : 25,000 кадров/сек
Стандарт вещания : PAL
Цветовое пространство : YUV
Субдискретизация насыщенности : 4:2:0
Битовая глубина : 8 бит
Тип развёртки : Прогрессивная
Бит/(Пиксели*Кадры) : 0.149
Размер потока : 3,01 Гбайт (91%)
Default : Нет
Forced : Нет
Цветовой диапазон : Limited
Основные цвета : BT.709
Характеристики трансфера : BT.709
Коэффициенты матрицы : BT.709
Аудио
Идентификатор : 2
Формат : AC-3
Формат/Информация : Audio Coding 3
Расширение режима : CM (complete main)
Параметр Endianness формата : Big
Идентификатор кодека : A_AC3
Продолжительность : 1 ч. 14 м.
Вид битрейта : Постоянный
Битрейт : 448 Кбит/сек
Каналы : 6 каналов
Расположение каналов : Front: L C R, Side: L R, LFE
Частота : 48,0 КГц
Метод сжатия : С потерями
Размер потока : 239 Мбайт (7%)
Язык : Russian
Default : Да
Forced : Нет



   Похожие торренты   Торрент   Размер 
В этой теме нет новых непрочитанных сообщений. Посредник (1990) DVDRip

328 | 20

2.04 ГБ

В этой теме нет новых непрочитанных сообщений. Посредник (1990) SATRip

20 | 0

2.18 ГБ

В этой теме нет новых непрочитанных сообщений. Посредник [01-04 из 04] (2013) HDTVRip-AVC от Files-x

3 | 0

2.74 ГБ

В этой теме нет новых непрочитанных сообщений. Посредник [01-04 из 04] (2013) HDTVRip от GeneralFilm

12 | 0

2.17 ГБ

В этой теме нет новых непрочитанных сообщений. Посредник / Грач [01-12 из 12] (2012) HDTVRip-AVC

125 | 28

7.79 ГБ

В этой теме нет новых непрочитанных сообщений. Посредник / Грач [01-12 из 12] HDTVRip от Files-x

68 | 23

7.62 ГБ

В этой теме нет новых непрочитанных сообщений. Посредник / The Go-Between (2015) HDTVRip 720p | L1

3 | 0

2.3 ГБ




Вы не можете начинать темы
Вы не можете отвечать на сообщения
Вы не можете редактировать свои сообщения
Вы не можете удалять свои сообщения
Вы не можете добавлять вложения

Перейти:  
Для Мосгорсуда, Роскомнадзора и рекламодателей: mosgorsud-torrent[собачка]yandex.ru
 Вход
ppkBB3cker v.2 © 2008-2014 @ PPK
[ Time : 0.047s | 18 Queries | GZIP : Off ]

cron