img image001 image001 image001 image001 image001 image001 image001 image001 image001 image001 image001 image001 image001 image001 image001 image001

Planets Sun Sun Sun
Статистика раздачи
Автор: Nickolas3434 | Размер: 2.2 ГБ | Добавлен: 26 ноя 2017
Раздают: 20    Качают: 1
Скачать торрент
Скачать торрент
Описание торрента

СообщениеДобавлено: 26 ноя 2017 

Год выпуска: 2017
Оригинальное название: Холодное танго
Страна: Россия
Жанр: мелодрама, военный, драма, история
Возраст: 16+
Режиссер: Павел Чухрай
В ролях: Юлия Пересильд, Риналь Мухаметов, Карина Каграманян, Сергей Гармаш, Елисей Никандров, Ася Громова, Моника Санторо, Валерия Ткаченко, Андрюс Бялобжескис, Мария Малиновская
Описание фильма Холодное танго (2017): Он чудом избежал смерти, чтобы вернуться в дом, где родился. В дом, в котором теперь живет любовь всей его жизни. Но надежда на счастье оборачивается страшным открытием. Его возлюбленная — дочь его врага.
Продолжительность: 01:46:40
Перевод: Оригинал (русский) [Лицензия]
Оригинальная дорожка: есть
Автор рипа:
Качество видео: BDRip 720p Исходник: Blu-Ray Remux (1080p) Формат: mp4
Видео кодек: MPEG-4 AVC Аудио кодек: AAC
Видео: 1280x690 (1.85:1) at 24.000 fps, AVC at 2 812 kbps avg, 0.133 bit/pixel
Аудио №1 Rus: 48.0 KHz, AAC, 2 ch, 128.0 Kbps
Субтитры: нет
Навигация по главам: есть
Размер: 2.20 GiB
avs [info]: 1280x690p 1:1 @ 24/1 fps (cfr)
x264 [info]: using SAR=1/1
x264 [info]: using cpu capabilities: MMX2 SSE2Fast SSSE3 Cache64
x264 [info]: profile High, level 4.1
x264 [info]: frame I:1167 Avg QP:16.76 size:111437
x264 [info]: frame P:32304 Avg QP:19.88 size: 34002
x264 [info]: frame B:120127 Avg QP:21.63 size: 8503
x264 [info]: consecutive B-frames: 1.2% 1.6% 4.7% 27.1% 24.4% 29.1% 11.8%
x264 [info]: mb I I16..4: 7.3% 75.4% 17.3%
x264 [info]: mb P I16..4: 1.5% 9.3% 1.3% P16..4: 45.9% 21.0% 13.1% 0.0% 0.0% skip: 7.9%
x264 [info]: mb B I16..4: 0.1% 0.7% 0.1% B16..8: 39.1% 5.6% 1.1% direct: 5.3% skip:47.8% L0:42.7% L1:49.2% BI: 8.1%
x264 [info]: 8x8 transform intra:75.8% inter:71.9%
x264 [info]: coded y,uvDC,uvAC intra: 72.1% 82.6% 50.5% inter: 16.8% 29.6% 6.2%
x264 [info]: i16 v,h,dc,p: 30% 16% 6% 48%
x264 [info]: i8 v,h,dc,ddl,ddr,vr,hd,vl,hu: 23% 16% 18% 5% 8% 8% 8% 7% 7%
x264 [info]: i4 v,h,dc,ddl,ddr,vr,hd,vl,hu: 32% 16% 10% 5% 9% 8% 8% 6% 6%
x264 [info]: i8c dc,h,v,p: 51% 19% 21% 9%
x264 [info]: Weighted P-Frames: Y:3.5% UV:1.2%
x264 [info]: ref P L0: 47.3% 12.4% 17.8% 5.8% 5.6% 3.9% 3.6% 1.7% 2.0% 0.1% 0.0%
x264 [info]: ref B L0: 80.5% 8.7% 4.4% 2.1% 1.6% 1.3% 1.0% 0.3%
x264 [info]: ref B L1: 95.8% 4.2%
x264 [info]: kb/s:2812.33
encoded 153598 frames, 1.50 fps, 2812.33 kb/s

General
Complete name : ...Xolodnoe_tango_2017_KinoGadget.mp4
Format : MPEG-4
Format profile : Base Media
Codec ID : isom (isom)
File size : 2.20 GiB
Duration : 1 h 46 min
Overall bit rate mode : Variable
Overall bit rate : 2 948 kb/s
Movie name : Холодное танго | KinoGadget
Performer : Павел Чухрай
Director : Павел Чухрай
Actor : Юлия Пересильд / Риналь Мухаметов / Карина Каграманян / Сергей Гармаш / Елисей Никандров / Ася Громова / Моника Санторо / Валерия Ткаченко / Андрюс Бялобжескис / Мария Малиновская
Screenplay by : Павел Чухрай
Producer : Сабина Еремеева / Алексей Резникович
Genre : Drama, Historical, Romance, War
ContentType : Short Film
Recorded date : 2017
Encoded date : UTC 2017-11-26 07:55:50
Tagged date : UTC 2017-11-26 08:52:58
Cover : Yes
ContentRating : mpaa|PG-13|300|
LongDeion : Он чудом избежал смерти, чтобы вернуться в дом, где родился. В дом, в котором теперь живет любовь всей его жизни. Но надежда на счастье оборачивается страшным открытием. Его возлюбленная — дочь его врага.
HDVideo : Yes
Video
ID : 1
Format : AVC
Format/Info : Advanced Video Codec
Format profile : High@L4.1
Format settings, CABAC : Yes
Format settings, ReFrames : 9 frames
Codec ID : avc1
Codec ID/Info : Advanced Video Coding
Duration : 1 h 46 min
Bit rate : 2 812 kb/s
Maximum bit rate : 16.5 Mb/s
Width : 1 280 pixels
Height : 690 pixels
Display aspect ratio : 1.85:1
Frame rate mode : Constant
Frame rate : 24.000 FPS
Color space : YUV
Chroma subsampling : 4:2:0
Bit depth : 8 bits
Scan type : Progressive
Bits/(Pixel*Frame) : 0.133
Stream size : 2.10 GiB (95%)
Writing library : x264 core 152 r2851 ba24899
Encoding settings : cabac=1 / ref=9 / deblock=1:-2:-1 / analyse=0x3:0x113 / me=umh / subme=7 / psy=1 / psy_rd=1.00:0.00 / mixed_ref=1 / me_range=32 / chroma_me=1 / trellis=2 / 8x8dct=1 / cqm=0 / deadzone=21,11 / fast_pskip=0 / chroma_qp_offset=-2 / threads=3 / lookahead_threads=1 / sliced_threads=0 / nr=0 / decimate=1 / interlaced=0 / bluray_compat=0 / constrained_intra=0 / bframes=6 / b_pyramid=2 / b_adapt=2 / b_bias=0 / direct=1 / weightb=1 / open_gop=0 / weightp=2 / keyint=250 / keyint_min=25 / scenecut=40 / intra_refresh=0 / rc_lookahead=60 / rc=crf / mbtree=1 / crf=20.0 / qcomp=0.60 / qpmin=0 / qpmax=69 / qpstep=4 / vbv_maxrate=62500 / vbv_bufsize=78125 / crf_max=0.0 / nal_hrd=none / filler=0 / ip_ratio=1.40 / aq=1:1.00
Encoded date : UTC 2017-11-25 22:56:15
Tagged date : UTC 2017-11-26 07:56:37
Audio
ID : 2
Format : AAC
Format/Info : Advanced Audio Codec
Format profile : LC
Codec ID : 40
Duration : 1 h 46 min
Bit rate mode : Variable
Bit rate : 128 kb/s
Maximum bit rate : 135 kb/s
Channel(s) : 2 channels
Channel positions : Front: L R
Sampling rate : 48.0 kHz
Frame rate : 46.875 FPS (1024 spf)
Compression mode : Lossy
Stream size : 97.7 MiB (4%)
Language : Russian
Encoded date : UTC 2017-11-25 23:01:17
Tagged date : UTC 2017-11-26 07:56:37
Menu
00:00:00.000 : Chapter 01
00:02:23.291 : Chapter 02
00:12:57.625 : Chapter 03
00:24:11.750 : Chapter 04
00:37:37.916 : Chapter 05
00:50:45.708 : Chapter 06
01:04:37.625 : Chapter 07
01:16:17.291 : Chapter 08
01:30:06.250 : Chapter 09



Данный рип предназначен для просмотра на мобильных гаджетах с поддержкой формата mp4



   Похожие торренты   Торрент   Размер 
В этой теме нет новых непрочитанных сообщений. Холодное танго (2017) BDRip 720p от HELLYWOOD | Лицензия

89 | 2

5.76 ГБ

В этой теме нет новых непрочитанных сообщений. Холодное танго (2017) BDRip 720p от ExKinoRay | Лицензия

47 | 1

5.73 ГБ

В этой теме нет новых непрочитанных сообщений. Холодное танго (2017) BDRip от HQCLUB | Лицензия

33 | 0

2 ГБ

В этой теме нет новых непрочитанных сообщений. Холодное танго (2017) BDRip от ExKinoRay | Лицензия

78 | 0

1.46 ГБ

В этой теме нет новых непрочитанных сообщений. Холодное танго (2017) BDRip-AVC от HELLYWOOD | Лицензия

69 | 1

2.17 ГБ

В этой теме нет новых непрочитанных сообщений. Холодное танго (2017) BDRip 1080p от OlLanDGroup | Лицензия

16 | 1

10.74 ГБ

В этой теме нет новых непрочитанных сообщений. Холодное танго (2017) Blu-Ray 1080p | Лицензия

13 | 0

18.19 ГБ




Вы не можете начинать темы
Вы не можете отвечать на сообщения
Вы не можете редактировать свои сообщения
Вы не можете удалять свои сообщения
Вы не можете добавлять вложения

Перейти:  
 Вход
ppkBB3cker v.2 © 2008-2014 @ PPK
[ Time : 0.044s | 18 Queries | GZIP : Off ]

cron