img image001 image001 image001 image001 image001 image001 image001 image001 image001 image001 image001 image001 image001 image001 image001 image001

Planets Sun Sun Sun
Статистика раздачи
Автор: Nickolas3434 | Размер: 1.09 ГБ | Добавлен: 02 дек 2017
Раздают: 5    Качают: 2
Скачать торрент
Скачать торрент
Описание торрента

СообщениеДобавлено: 02 дек 2017 


Мы "В КОНТАКТЕ"


Страна: СССР
Производство: Киностудия им. М. Горького
Жанр: драма
Год выпуска: 1959
Продолжительность: 01:33:49
Перевод: Не требуется
Cубтитры: нет
Оригинальная аудиодорожка: русский
Режиссер: Марк Донской
В ролях:
Георгий Епифанцев, Сергей Лукьянов, Павел Тарасов, Алла Лабецкая, Марианна Стриженова, Мария Милкова, Игорь Сретенский, Геннадий Сергеев, А. Глущенко, Исай Гуров, Борис Ситко, Борис Андреев (VI), Саша Балицкий, Ира Никифорова, Люся Никифорова, Владик Лебедев, Саша Кукаренко...
Об актёрах подробней
Описание:
По мотивам одноименного романа М. Горького.
Игнат Гордеев (Сергей Лукьянов), богатейший волжский купец, мечтает вырастить из сына помощника в своём деле. Но Фома (Георгий Епифанцев) не пошёл в отца. С детских лет не давала ему покоя грязь, несправедливость окружающей жизни.





Источник: DVD5 R5
Качество видео: DVDRip
Формат видео: AVI
Видео: 704x528 (4:3), 25 fps, XviD ~ 1459 kbps avg, 0.157 bit/pixel
Аудио: 48 kHz, Dolby Digital AC3 2.0, 192 kbps
Раздача от:
Общее
Полное имя : Foma.Gordeev.1959.DVDRip_[New-team]_by_AVP_Studio.avi
Формат : AVI
Формат/Информация : Audio Video Interleave
Размер файла : 1,09 Гбайт
Продолжительность : 1 ч. 33 м.
Общий поток : 1661 Кбит/сек
Программа кодирования : VirtualDubMod 1.5.10.3 | www.virtualdub-fr.org || (build 2550/release)
Библиотека кодирования : VirtualDubMod build 2550/release
Видео
Идентификатор : 0
Формат : MPEG-4 Visual
Профиль формата : Advanced Simple@L5
Настройки формата : BVOP1 / Custom Matrix
Параметр BVOP формата : 1
Параметр QPel формата : Нет
Параметр GMC формата : Без точки перехода
Параметр матрицы формата : Выборочная
Идентификатор кодека : XVID
Идентификатор кодека/Подсказка : XviD
Продолжительность : 1 ч. 33 м.
Битрейт : 1459 Кбит/сек
Ширина : 704 пикселя
Высота : 528 пикселей
Соотношение сторон : 4:3
Частота кадров : 25,000 кадров/сек
Цветовое пространство : YUV
Субдискретизация насыщенности : 4:2:0
Битовая глубина : 8 бит
Тип развёртки : Прогрессивная
Метод сжатия : С потерями
Бит/(Пиксели*Кадры) : 0.157
Размер потока : 979 Мбайт (88%)
Библиотека кодирования : XviD 73
Аудио
Идентификатор : 1
Формат : AC-3
Формат/Информация : Audio Coding 3
Идентификатор кодека : 2000
Продолжительность : 1 ч. 33 м.
Вид битрейта : Постоянный
Битрейт : 192 Кбит/сек
Каналы : 2 канала
Расположение каналов : Front: L R
Частота : 48,0 КГц
Частота кадров : 31,250 кадров/сек (1536 SPF)
Битовая глубина : 16 бит
Метод сжатия : С потерями
Размер потока : 129 Мбайт (12%)
Выравнивание : Разделение по промежуткам
Продолжительность промежутка : 40 мс. (1,00 видеокадр)
Время предзагрузки промежутка : 500 мс





   Похожие торренты   Торрент   Размер 
В этой теме нет новых непрочитанных сообщений. Фома Гордеев (1959) DVDRip-AVC от New-Team

3 | 0

1.09 ГБ

В этой теме нет новых непрочитанных сообщений. Фома Гордеев (1959) DVDRip от New-Team

5 | 1

745.22 МБ

В этой теме нет новых непрочитанных сообщений. Фуркат (1959) DVDRip-AVC от New-Team

4 | 2

1.09 ГБ

В этой теме нет новых непрочитанных сообщений. Жестокость (1959) DVDRip от New-Team

2 | 2

1.09 ГБ

В этой теме нет новых непрочитанных сообщений. Сомбреро (1959) DVDRip от New-Team

6 | 0

1.09 ГБ

В этой теме нет новых непрочитанных сообщений. Черноморочка (1959) DVDRip-AVC от New-Team

6 | 0

1.09 ГБ

В этой теме нет новых непрочитанных сообщений. Накануне (1959) DVDRip-AVC от New-Team

5 | 0

1.09 ГБ




Вы не можете начинать темы
Вы не можете отвечать на сообщения
Вы не можете редактировать свои сообщения
Вы не можете удалять свои сообщения
Вы не можете добавлять вложения

Перейти:  
 Вход
ppkBB3cker v.2 © 2008-2014 @ PPK
[ Time : 0.034s | 18 Queries | GZIP : Off ]

cron