img image001 image001 image001 image001 image001 image001 image001 image001 image001 image001 image001 image001 image001 image001 image001 image001

Planets Sun Sun Sun
Статистика раздачи
Автор: Nickolas3434 | Размер: 1.09 ГБ | Добавлен: 09 дек 2017
Раздают: 2    Качают: 0
Скачать торрент
Скачать торрент
Описание торрента

СообщениеДобавлено: 09 дек 2017 


Мы "В КОНТАКТЕ"


Страна: СССР
Производство: киностудия им. М.Горького и "Баррандов"
Жанр: драма
Год выпуска: 1959
Продолжительность: 01:15:03
Перевод: Не требуется
Cубтитры: нет
Оригинальная аудиодорожка: русский
Режиссер: Лев Кулиджанов
В ролях:
Елена Кнаппова, Ян Шир, Властимил Бродский, Франтишек Ганус, Николай Гарин, Женя Демочкина, Вера Дихтяр, Николай Довженко, Лидия Драновская, Стелла Зазворкова, Александр Кекиш, Петер Колларик, Валерий Мотренко, Вячеслав Подвиг, Олег Попов, Томаш Седлачек, Ярмила Смейкалова, Дагмар Таборска, Леонид Топчиев, Н. Третьяченко, Станислав Фишер, Андрюша Чернощеков, Борис Чирков, Карел Эффа...
Об актёрах подробней
Описание:
О дружбе советских и чехословацких ребят.
Вашек не помнил человека, изображенного на фотографии. Это был советский танкист, один из тех, кто освободил Прагу от немцев в мае 1945 года. Мать часто рассказывала, как дорога была танкисту эта потерянная фотография - единственная память о семье, пропавшей в оккупированной Одессе.





Исходник: DVB
Качество видео: SATRip
Формат видео: AVI
Видео: 704х528 (4:3), 25 fps, XviD ~ 1878 kbps avg, 0.202 bit/pixel
Аудио: 48 kHz, Dolby Digital AC3 2.0, 192 kbps
Раздача от:
Общее
Полное имя : Poteryannaya.fotografiya.1959.SATRip_[New-team]_by_AVP_Studio.avi
Формат : AVI
Формат/Информация : Audio Video Interleave
Размер файла : 1,09 Гбайт
Продолжительность : 1 ч. 15 м.
Общий поток : 2080 Кбит/сек
Программа кодирования : VirtualDubMod 1.5.10.3 | www.virtualdub-fr.org || (build 2550/release)
Библиотека кодирования : VirtualDubMod build 2550/release
Видео
Идентификатор : 0
Формат : MPEG-4 Visual
Профиль формата : Advanced Simple@L5
Настройки формата : BVOP1 / Custom Matrix
Параметр BVOP формата : 1
Параметр QPel формата : Нет
Параметр GMC формата : Без точки перехода
Параметр матрицы формата : Выборочная
Идентификатор кодека : XVID
Идентификатор кодека/Подсказка : XviD
Продолжительность : 1 ч. 15 м.
Битрейт : 1878 Кбит/сек
Ширина : 704 пикселя
Высота : 528 пикселей
Соотношение сторон : 4:3
Частота кадров : 25,000 кадров/сек
Цветовое пространство : YUV
Субдискретизация насыщенности : 4:2:0
Битовая глубина : 8 бит
Тип развёртки : Прогрессивная
Метод сжатия : С потерями
Бит/(Пиксели*Кадры) : 0.202
Размер потока : 1008 Мбайт (90%)
Библиотека кодирования : XviD 73
Аудио
Идентификатор : 1
Формат : AC-3
Формат/Информация : Audio Coding 3
Идентификатор кодека : 2000
Продолжительность : 1 ч. 15 м.
Вид битрейта : Постоянный
Битрейт : 192 Кбит/сек
Каналы : 2 канала
Расположение каналов : Front: L R
Частота : 48,0 КГц
Частота кадров : 31,250 кадров/сек (1536 SPF)
Битовая глубина : 16 бит
Метод сжатия : С потерями
Размер потока : 103 Мбайт (9%)
Выравнивание : Разделение по промежуткам
Продолжительность промежутка : 40 мс. (1,00 видеокадр)
Время предзагрузки промежутка : 500 мс





   Похожие торренты   Торрент   Размер 
В этой теме нет новых непрочитанных сообщений. Потерянная фотография (1959) SATRip-AVC от New-Team

6 | 0

1.09 ГБ

В этой теме нет новых непрочитанных сообщений. Потерянная фотография / Přátelé na moři (1959) SATRip

4 | 0

900.55 МБ

В этой теме нет новых непрочитанных сообщений. Сверстницы (1959) SATRip от New-Team

4 | 0

745.39 МБ

В этой теме нет новых непрочитанных сообщений. Сын Иристона (1959) SATRip-AVC от New-Team

6 | 0

1.09 ГБ

В этой теме нет новых непрочитанных сообщений. Мальчики (1959) SATRip от New-Team

2 | 3

745.08 МБ

В этой теме нет новых непрочитанных сообщений. Сверстницы (1959) SATRip-AVC от New-Team

9 | 1

1.09 ГБ

В этой теме нет новых непрочитанных сообщений. Муму (1959) SATRip-AVC от New-Team

24 | 0

744.35 МБ




Вы не можете начинать темы
Вы не можете отвечать на сообщения
Вы не можете редактировать свои сообщения
Вы не можете удалять свои сообщения
Вы не можете добавлять вложения

Перейти:  
 Вход
ppkBB3cker v.2 © 2008-2014 @ PPK
[ Time : 0.045s | 17 Queries | GZIP : Off ]

cron