img image001 image001 image001 image001 image001 image001 image001 image001 image001 image001 image001 image001 image001 image001 image001 image001

Planets Sun Sun Sun
Статистика раздачи
Автор: Nickolas3434 | Размер: 2.9 ГБ | Добавлен: 12 дек 2017
Раздают: 11    Качают: 2
Скачать торрент
Скачать торрент
Описание торрента

СообщениеДобавлено: 12 дек 2017 

Информация о фильме
Название: Оливер Твист
Оригинальное название: Oliver Twist
Год выхода: 2005
Жанр: драма, семейный, приключения
Режиссер: Роман Полански
В ролях: Барни Кларк, Бен Кингсли, Джэми Формен, Лиэнн Роу, Марк Стронг, Гарри Иден, Эдвард Хардуик, Иэн МакНис, Джереми Свифт, Фрэнсис Кука
О фильме: 19-й век. Мальчик по имени Оливер Твист, брошенный родителями, оказывается на улицах Лондона. Здесь он знакомится с вором по имени Фэджин, который приглашает Оливера в свою команду. Некоторое время спустя Оливер, начинающий вор, попадается на горячем. Однако, поймавший его мистер Браунлоу вместо того, чтобы наказать маленького мерзавца, решает его воспитать…

Страна: Чехия, Великобритания, Франция, Италия
Продолжительность: 02:10:00
Перевод: Профессиональный (дублированный)
Файл
Кодек: H264
Качество: BDRip-AVC
Видео: 2 738 kb/s, 1064x452, 23.976fps
Звук: ac3, 48000 Hz, 5.1, 448 kb/s, Russian R5
Субтитры: Русские
General
Unique ID : 237084565903051565232997179447727479963 (0xB25CD3945AFADA45B6C52B355BDDDC9B)
Complete name : d:VideosОливер Твист.2005.BDRip-AVC.mkv
Format : Matroska
Format version : Version 4 / Version 2
File size : 2.90 GiB
Duration : 2 h 9 min
Overall bit rate : 3 188 kb/s
Encoded date : UTC 2017-12-09 17:03:03
Writing application : mkvmerge v8.3.0 ('Over the Horizon') 32bit
Writing library : libebml v1.3.1 + libmatroska v1.4.2
Attachments : Oliver Twist.jpg
Video
ID : 1
Format : AVC
Format/Info : Advanced Video Codec
Format profile : High@L4
Format settings : CABAC / 10 Ref Frames
Format settings, CABAC : Yes
Format settings, RefFrames : 10 frames
Codec ID : V_MPEG4/ISO/AVC
Duration : 2 h 9 min
Bit rate : 2 738 kb/s
Width : 1 064 pixels
Height : 452 pixels
Display aspect ratio : 2.35:1
Frame rate mode : Constant
Frame rate : 23.976 (24000/1001) FPS
Color space : YUV
Chroma subsampling : 4:2:0
Bit depth : 8 bits
Scan type : Progressive
Bits/(Pixel*Frame) : 0.237
Stream size : 2.49 GiB (86%)
Writing library : x264 core 116 r2074 2641b9e
Encoding settings : cabac=1 / ref=10 / deblock=1:-2:-1 / analyse=0x3:0x133 / me=umh / subme=10 / psy=1 / psy_rd=1.00:0.00 / mixed_ref=1 / me_range=32 / chroma_me=1 / trellis=2 / 8x8dct=1 / cqm=0 / deadzone=21,11 / fast_pskip=0 / chroma_qp_offset=-2 / threads=6 / sliced_threads=0 / nr=0 / decimate=1 / interlaced=0 / bluray_compat=0 / constrained_intra=0 / bframes=10 / b_pyramid=2 / b_adapt=2 / b_bias=0 / direct=3 / weightb=1 / open_gop=0 / weightp=2 / keyint=250 / keyint_min=23 / scenecut=40 / intra_refresh=0 / rc_lookahead=60 / rc=crf / mbtree=0 / crf=17.9 / qcomp=0.70 / qpmin=0 / qpmax=69 / qpstep=4 / vbv_maxrate=25000 / vbv_bufsize=31250 / crf_max=0.0 / nal_hrd=none / ip_ratio=1.40 / pb_ratio=1.30 / aq=1:0.90
Language : English
Default : Yes
Forced : No
Color range : Limited
Matrix coefficients : BT.709
Audio
ID : 2
Format : AC-3
Format/Info : Audio Coding 3
Format settings, Endianness : Big
Codec ID : A_AC3
Duration : 2 h 9 min
Bit rate mode : Constant
Bit rate : 448 kb/s
Channel(s) : 6 channels
Channel positions : Front: L C R, Side: L R, LFE
Sampling rate : 48.0 kHz
Frame rate : 31.250 FPS (1536 SPF)
Bit depth : 16 bits
Compression mode : Lossy
Stream size : 417 MiB (14%)
Title : Дубляж
Language : Russian
Service kind : Complete Main
Default : Yes
Forced : No
Text
ID : 3
Format : UTF-8
Codec ID : S_TEXT/UTF8
Codec ID/Info : UTF-8 Plain Text
Duration : 2 h 4 min
Bit rate : 74 b/s
Count of elements : 1327
Stream size : 67.6 KiB (0%)
Title : Русские
Language : Russian
Default : No
Forced : No
Menu
00:00:00.000 : en:Chapter 1
00:04:03.118 : en:Chapter 2
00:12:10.063 : en:Chapter 3
00:18:34.572 : en:Chapter 4
00:22:34.061 : en:Chapter 5
00:27:50.502 : en:Chapter 6
00:33:51.446 : en:Chapter 7
00:42:57.784 : en:Chapter 8
00:50:57.137 : en:Chapter 9
00:59:08.128 : en:Chapter 10
01:06:57.430 : en:Chapter 11
01:14:22.249 : en:Chapter 12
01:22:17.474 : en:Chapter 13
01:30:36.556 : en:Chapter 14
01:41:06.102 : en:Chapter 15
01:47:46.710 : en:Chapter 16
01:57:21.910 : en:Chapter 17
02:05:00.952 : en:Chapter 18
• Идея создания новой версии «Оливера Твиста» была подсказана женой режиссёра Романа Полански Эммануэль Сенье, когда он находился в поисках подходящего сюжета, который мог бы заинтересовать их детей.
• Изначально роль мистера Браунлоу была предназначена Фрэнку Финлэю, который впоследствии выбыл из проекта и вместо него был приглашён Эдвард Хардвик.
• Дети режиссёра Романа Полански получили небольшие роли в картине. Морган Полански играет дочь фермера, к которому Оливер на пути в Лондон заходит попросить немного еды, а Элвис Полански мальчика, играющего с обручем на улицах Лондона.
• Съёмочная площадка была столь велика, что режиссёр Роман Полански использовал моторный скутер, чтобы перемещаться по ней.
• Чтобы молодые актеры, играющие мальчиков из банды Фэджина, лучше вошли в образ, Бен Кингсли сохранял черты своего персонажа (сутулую походку и манеру говорить) и за пределами съёмочной площадки.
• Многие декорации были воссозданы на основе работ знаменитого художника-иллюстратора 19 века Густава Дорэ, который, однако, не иллюстрировал ни один из романов Чарльза Диккенса.
• Сыгравший роль Оливера Твиста Барни Кларк на всём протяжении съёмочного процесса вёл дневник, в котором рассказывал о своих впечатлениях от участия в проекте.
Семпл



   Похожие торренты   Торрент   Размер 
В этой теме нет новых непрочитанных сообщений. Оливер Твист / Oliver Twist (2007) DVDRip-AVC | P

28 | 10

2.91 ГБ

В этой теме нет новых непрочитанных сообщений. Оливер Твист / Oliver Twist (2007) DVDRip | P

264 | 15

2.76 ГБ

В этой теме нет новых непрочитанных сообщений. Оливер и компания / Oliver & Company (1988) BDRip-AVC | iPad | D

147 | 26

1.65 ГБ

В этой теме нет новых непрочитанных сообщений. Твист круглые сутки / Twist Around The Clock (1961) DVDRip

51 | 5

1.21 ГБ

В этой теме нет новых непрочитанных сообщений. Твист круглые сутки / Twist Around The Clock (1961) DVD5

30 | 5

2.64 ГБ

В этой теме нет новых непрочитанных сообщений. Твист снова в Москве / Twist again a Moscou (1986) DVDRip-AVC от ExKinoRay | P2

4 | 3

1.81 ГБ

В этой теме нет новых непрочитанных сообщений. Твист снова в Москве / Twist again a Moscou (1986) DVDRip от Кинорадиомагия | P2

93 | 19

1.37 ГБ




Вы не можете начинать темы
Вы не можете отвечать на сообщения
Вы не можете редактировать свои сообщения
Вы не можете удалять свои сообщения
Вы не можете добавлять вложения

Перейти:  
 Вход
ppkBB3cker v.2 © 2008-2014 @ PPK
[ Time : 0.025s | 16 Queries | GZIP : Off ]

cron