img image001 image001 image001 image001 image001 image001 image001 image001 image001 image001 image001 image001 image001 image001 image001

Planets Sun Sun Sun

COVID-19 - Последняя информация о коронавирусе на сайте Минздрава


Статистика раздачи
Автор: Nickolas3434 | Размер: 36.05 ГБ | Добавлен: 12 дек 2017
Раздают: 8    Качают: 0
Скачать торрент
Скачать торрент
Описание торрента

СообщениеДобавлено: 12 дек 2017 

Информация о фильме
Название: Фантастическая четверка
Оригинальное название: Fantastic Four
Год выхода: 2015
Жанр: Фантастика, боевик, приключения
Режиссер: Джошуа Транк
В ролях: Майлз Теллер, Майкл Б. Джордан, Кейт Мара, Джейми Белл, Тоби Кеббелл, Рег Э. Кэти, Тим Блэйк Нельсон, Джошуа Монтес, Дэн Кастелланета, Оуэн Джадж
О фильме:
История о четырех молодых астронавтах, которые отважились на авантюрное путешествие в параллельное измерение для исследования аномальной волны космической энергии. Вернувшись из путешествия, они обнаружили у себя суперспособности, которые навсегда изменили их жизни…

Страна: США
Студия: 20th Century Fox Film Corporation, Genre Films, Marvel Entertainment
Продолжительность: 01:39:58
Перевод: Дублированный | Лицензия
Файл
Качество: BDRemux 2160p
Видео: MPEG-H HEVC HDR Video, 3840x2160, 45.0 Mbit/s, 23.976 fps
Звук:
Аудио #01: 48 kHz, DTS, 5.1, 768 Kbps | Дублированный | RUS |
Аудио #02: 48 kHz, AC3, 5.1, 448 Kbps | Дублированный | RUS |
Аудио #03: 48 kHz, AC3, 5.1, 448 Kbps | Дублированный | UKR |
Аудио #04: 48 kHz, DTS-HD MA, 7.1, 4883 Kbps | Оригинал | ENG |
Субтитры: Русские (forced, full), украинские (full), английские

General
Unique ID : 224406520939024204314009871931718593946 (0xA8D31FB3ED63DF5CB1F80DDCFF7D6D9A)
Complete name : G:VideoSSDFantastic.Four.2015.BDREMUX.2160p.4K.UltraHD.HEVC.HDR.ExKinoRay.mkv
Format : Matroska
Format version : Version 4 / Version 2
File size : 36.1 GiB
Duration : 1 h 41 min
Overall bit rate : 50.8 Mb/s
Movie name : Fantastic Four 2015 from ExKinoRay
Encoded date : UTC 2017-12-11 15:58:10
Writing application : mkvmerge v18.0.0 ('Apricity') 64-bit
Writing library : libebml v1.3.5 + libmatroska v1.4.8
Video
ID : 1
Format : HEVC
Format/Info : High Efficiency Video Coding
Format profile : Main 10@L5.1@High
Codec ID : V_MPEGH/ISO/HEVC
Duration : 1 h 39 min
Bit rate : 45.0 Mb/s
Width : 3 840 pixels
Height : 2 160 pixels
Display aspect ratio : 16:9
Frame rate mode : Constant
Frame rate : 23.976 (24000/1001) FPS
Color space : YUV
Chroma subsampling : 4:2:0 (Type 2)
Bit depth : 10 bits
Bits/(Pixel*Frame) : 0.226
Stream size : 31.4 GiB (87%)
Writing library : ATEME Titan KFE 3.7.1 (4.7.1.1002)
Language : English
Default : Yes
Forced : No
Color range : Limited
Color primaries : BT.2020
Transfer characteristics : PQ
Matrix coefficients : BT.2020 non-constant
Mastering display color pri : R: x=0.680000 y=0.320000, G: x=0.265000 y=0.690000, B: x=0.150000 y=0.060000, White point: x=0.312700 y=0.329000
Mastering display luminance : min: 0.0000 cd/m2, max: 1100.0000 cd/m2
Audio #1
ID : 2
Format : DTS
Format/Info : Digital Theater Systems
Mode : 16
Format settings, Endianness : Big
Codec ID : A_DTS
Duration : 1 h 39 min
Bit rate mode : Constant
Bit rate : 768 kb/s
Channel(s) : 6 channels
Channel positions : Front: L C R, Side: L R, LFE
Sampling rate : 48.0 kHz
Frame rate : 93.750 FPS (512 SPF)
Bit depth : 24 bits
Compression mode : Lossy
Stream size : 549 MiB (1%)
Title : Dub [License]
Language : Russian
Default : Yes
Forced : No
Audio #2
ID : 3
Format : AC-3
Format/Info : Audio Coding 3
Format settings, Endianness : Big
Codec ID : A_AC3
Duration : 1 h 39 min
Bit rate mode : Constant
Bit rate : 448 kb/s
Channel(s) : 6 channels
Channel positions : Front: L C R, Side: L R, LFE
Sampling rate : 48.0 kHz
Frame rate : 31.250 FPS (1536 SPF)
Bit depth : 16 bits
Compression mode : Lossy
Stream size : 320 MiB (1%)
Title : Dub (License)
Language : Russian
Service kind : Complete Main
Default : No
Forced : No
Audio #3
ID : 4
Format : AC-3
Format/Info : Audio Coding 3
Format settings, Endianness : Big
Codec ID : A_AC3
Duration : 1 h 39 min
Bit rate mode : Constant
Bit rate : 448 kb/s
Channel(s) : 6 channels
Channel positions : Front: L C R, Side: L R, LFE
Sampling rate : 48.0 kHz
Frame rate : 31.250 FPS (1536 SPF)
Bit depth : 16 bits
Compression mode : Lossy
Stream size : 320 MiB (1%)
Language : Ukrainian
Service kind : Complete Main
Default : No
Forced : No
Audio #4
ID : 5
Format : DTS
Format/Info : Digital Theater Systems
Format profile : MA / ES Matrix / Core
Mode : 16
Format settings, Endianness : Big
Codec ID : A_DTS
Duration : 1 h 41 min
Bit rate mode : Variable / Constant / Constant
Bit rate : 4 883 kb/s / 1 509 kb/s / 1 509 kb/s
Channel(s) : 8 channels / 7 channels / 6 channels
Channel positions : Front: L C R, Side: L R, Back: L R, LFE / Front: L C R, Side: L R, Back: C, LFE / Front: L C R, Side: L R, LFE
Sampling rate : 48.0 kHz
Frame rate : 93.750 FPS (512 SPF)
Bit depth : 24 bits
Compression mode : Lossless / Lossy / Lossy
Stream size : 3.47 GiB (10%)
Title : Original
Language : English
Default : No
Forced : No
Text #1
ID : 6
Format : UTF-8
Codec ID : S_TEXT/UTF8
Codec ID/Info : UTF-8 Plain Text
Duration : 1 h 38 min
Bit rate : 0 b/s
Count of elements : 11
Stream size : 525 Bytes (0%)
Title : Forced
Language : Russian
Default : Yes
Forced : No
Text #2
ID : 7
Format : UTF-8
Codec ID : S_TEXT/UTF8
Codec ID/Info : UTF-8 Plain Text
Duration : 1 h 39 min
Bit rate : 75 b/s
Count of elements : 1204
Stream size : 54.8 KiB (0%)
Title : Full
Language : Russian
Default : No
Forced : No
Text #3
ID : 8
Format : UTF-8
Codec ID : S_TEXT/UTF8
Codec ID/Info : UTF-8 Plain Text
Duration : 1 h 39 min
Bit rate : 77 b/s
Count of elements : 1206
Stream size : 56.3 KiB (0%)
Title : Full
Language : Ukrainian
Default : No
Forced : No
Text #4
ID : 9
Format : UTF-8
Codec ID : S_TEXT/UTF8
Codec ID/Info : UTF-8 Plain Text
Duration : 1 h 32 min
Bit rate : 51 b/s
Count of elements : 1303
Stream size : 34.9 KiB (0%)
Title : Full
Language : English
Default : No
Forced : No
Text #5
ID : 10
Format : UTF-8
Codec ID : S_TEXT/UTF8
Codec ID/Info : UTF-8 Plain Text
Duration : 1 h 32 min
Bit rate : 57 b/s
Count of elements : 1451
Stream size : 38.6 KiB (0%)
Title : SDH
Language : English
Default : No
Forced : No
Menu
00:00:00.000 : en:00:00:00.000
00:02:30.025 : en:00:02:30.025
00:07:22.609 : en:00:07:22.609
00:11:00.159 : en:00:11:00.159
00:14:59.524 : en:00:14:59.524
00:17:57.785 : en:00:17:57.785
00:22:03.322 : en:00:22:03.322
00:24:44.483 : en:00:24:44.483
00:27:49.877 : en:00:27:49.877
00:30:19.776 : en:00:30:19.776
00:34:56.011 : en:00:34:56.011
00:38:16.377 : en:00:38:16.377
00:43:10.087 : en:00:43:10.087
00:48:16.060 : en:00:48:16.060
00:51:35.301 : en:00:51:35.301
00:54:27.055 : en:00:54:27.055
00:57:18.101 : en:00:57:18.101
01:00:27.833 : en:01:00:27.833
01:04:34.913 : en:01:04:34.913
01:08:04.497 : en:01:08:04.497
01:12:08.282 : en:01:12:08.282
01:15:09.964 : en:01:15:09.964
01:19:10.162 : en:01:19:10.162
01:22:16.515 : en:01:22:16.515
01:24:49.543 : en:01:24:49.543
01:27:01.341 : en:01:27:01.341
01:30:49.569 : en:01:30:49.569
01:33:00.450 : en:01:33:00.450

Релиз от: Автор релиза:
Подпишись на меня, кликни по картинке > :

   Похожие торренты   Торрент   Размер 
В этой теме нет новых непрочитанных сообщений. Фантастические твари и где они обитают / Fantastic Beasts and Where to Find Them (2016) UHD BDRemux 2160p от ExKinoRay | 4K | HDR | Лицензия

44 | 11

50.86 ГБ

В этой теме нет новых непрочитанных сообщений. Джой / Joy (2015) UHD BDRemux 2160p от ExKinoRay | 4K | HDR | Лицензия

9 | 5

41.03 ГБ

В этой теме нет новых непрочитанных сообщений. Из машины / Ex Machina (2015) UHD BDRemux 2160p от ExKinoRay | 4K | HDR | D, A | Лицензия

5 | 2

60.22 ГБ

В этой теме нет новых непрочитанных сообщений. Эверест / Everest (2015) UHD BDRemux 2160p от ExKinoRay | 4K | HDR | Лицензия

9 | 4

48.68 ГБ

В этой теме нет новых непрочитанных сообщений. Пэн: Путешествие в Нетландию / Pan (2015) UHD BDRemux 2160p от ExKinoRay | 4K | HDR | Лицензия

4 | 3

48.38 ГБ

В этой теме нет новых непрочитанных сообщений. Робот по имени Чаппи / Chappie (2015) UHD BDRemux 2160p от ExKinoRay | 4K | HDR | D, A | Лицензия

33 | 6

54.83 ГБ

В этой теме нет новых непрочитанных сообщений. Терминатор: Генезис / Terminator Genisys (2015) UHD BDRemux 2160p от ExKinoRay | 4K | HDR | D, A | Лицензия

12 | 3

55.11 ГБ




Вы не можете начинать темы
Вы не можете отвечать на сообщения
Вы не можете редактировать свои сообщения
Вы не можете удалять свои сообщения
Вы не можете добавлять вложения

Перейти:  
Контактная информация: rstracker[пёсик]yandex.ru
 Вход
ppkBB3cker v.2 © 2008-2014 @ PPK
[ Time : 0.022s | 17 Queries | GZIP : Off ]

cron