img image001 image001 image001 image001 image001 image001 image001 image001 image001 image001 image001 image001 image001 image001 image001 image001

Planets Sun Sun Sun
Статистика раздачи
Автор: Nickolas3434 | Размер: 972.07 МБ | Добавлен: 15 дек 2017
Раздают: 1846    Качают: 48
Скачать торрент
Скачать торрент
Описание торрента

СообщениеДобавлено: 15 дек 2017 

Информация о фильме
Название: Черный ящик / Яма / Охота жить
Год выхода: 1998
Жанр: Драма
Режиссер: Александр Колбышев
О фильме:
В данной раздаче представлено 3 короткометражных фильма белорусского режиссера Александра Колбышева, являющиеся его студенческими и дипломными работами снятыми на базе Беларусьфильм в мастерской режиссуры игрового кино Виктора Турова Белорусской Академии Искусств.
Учебная работа студента 2 курса А. Колбышева
В ролях: Анатолий Котенёв, Олег Корчиков, Вера Шипило, Иван Павлов, Татьяна Сулимонова, Геннадий Матыцкий
Описание:
Инвалид, бывший военный летчик-афганец переживает подробности своего последнего полета, завершившегося катастрофой.
Доп. информация:

Сценарист: Александр Колбышев
Оператор: Иван Гончарук
Композитор: О. Гусев
Художник: Кирилл Блохин
НАГРАДЫ, НОМИНАЦИИ, ФЕСТИВАЛИ
Участие на МКФ «Молодость-96» (Киев), КФ «Сталкер-96» (Москва).
Качество: DVB
Контейнер: TS
Видео кодек: H.264
Аудио кодек: MP2
Видео: MPEG4 Video (H264) 720(785)x576 (49:36) 25fps, 2 209 kb/s
Аудио : MPEG Audio 48000Hz stereo 256kbps
Код:
General
ID                             : 1 (0x1)
Complete name                  : D:Новая  земля 2Художественные фильмыЧерный ящик (1995) Яма (1996) Охота жить (1998)Черный ящик (1995) Яма (1996) Охота жить (1998)Черный ящик (1995).ts
Format                         : MPEG-TS
File size                      : 185 MiB
Duration                       : 9 min
Overall bit rate mode          : Variable
Overall bit rate               : 2 596 kb/s
Video
ID                             : 801 (0x321)
Menu ID                        : 1 (0x1)
Format                         : AVC
Format/Info                    : Advanced Video Codec
Format profile                 : Main@L3
Format settings, CABAC         : Yes
Format settings, ReFrames      : 4 frames
Codec ID                       : 27
Duration                       : 9 min
Bit rate                       : 2 209 kb/s
Width                          : 720 pixels
Height                         : 576 pixels
Display aspect ratio           : 4:3
Frame rate                     : 25.000 FPS
Standard                       : PAL
Color space                    : YUV
Chroma subsampling             : 4:2:0
Bit depth                      : 8 bits
Scan type                      : MBAFF
Scan type, store method        : Interleaved fields
Scan order                     : Top Field First
Bits/(Pixel*Frame)             : 0.213
Stream size                    : 158 MiB (85%)
Color range                    : Limited
Color primaries                : BT.601 PAL
Transfer characteristics       : BT.470 System B, BT.470 System G
Matrix coefficients            : BT.601
Audio
ID                             : 802 (0x322)
Menu ID                        : 1 (0x1)
Format                         : MPEG Audio
Format version                 : Version 1
Format profile                 : Layer 2
Codec ID                       : 3
Duration                       : 9 min
Bit rate mode                  : Constant
Bit rate                       : 256 kb/s
Channel(s)                     : 2 channels
Sampling rate                  : 48.0 kHz
Compression mode               : Lossy
Stream size                    : 18.3 MiB (10%)
Language                       : English
 






Курсовая работа студента А. Колбышева
Продолжительность: 00:09:46
В ролях: Иван Мацкевич, Максим Беспалый, Игорь Денисов, Вячеслав Павлють, Александр Павлов
Описание: По мотивам рассказа Витаутаса Бубниса.
Август 1941. Первые дни войны. Немцы ведут на расстрел двух военнопленных. Офицер предлагает им сохранить свои жизни, но при одном условии...
Доп. информация:

Сценарист: Александр Колбышев
Оператор: Михаил Бродский
Художник: Игорь Хруцкий
НАГРАДЫ, НОМИНАЦИИ, ФЕСТИВАЛИ
Диплом жюри в номинации «Игровое кино» V ОРК студенческих фильмов «Св. Анна-98» (Москва).
Качество: DVB
Контейнер: TS
Видео кодек: H.264
Аудио кодек: MP2
Видео: MPEG4 Video (H264) 720(785)x576 (49:36) 25fps, 2 219 kb/s
Аудио : MPEG Audio 48000Hz stereo 256kbps
Код:
General
ID                             : 1 (0x1)
Complete name                  : D:Новая  земля 2Художественные фильмыЧерный ящик (1995) Яма (1996) Охота жить (1998)Черный ящик (1995) Яма (1996) Охота жить (1998)Яма (1996).ts
Format                         : MPEG-TS
File size                      : 182 MiB
Duration                       : 9 min
Overall bit rate mode          : Variable
Overall bit rate               : 2 606 kb/s
Video
ID                             : 801 (0x321)
Menu ID                        : 1 (0x1)
Format                         : AVC
Format/Info                    : Advanced Video Codec
Format profile                 : Main@L3
Format settings, CABAC         : Yes
Format settings, ReFrames      : 4 frames
Format settings, GOP           : M=4, N=24
Codec ID                       : 27
Duration                       : 9 min
Bit rate                       : 2 219 kb/s
Width                          : 720 pixels
Height                         : 576 pixels
Display aspect ratio           : 4:3
Frame rate                     : 25.000 FPS
Standard                       : PAL
Color space                    : YUV
Chroma subsampling             : 4:2:0
Bit depth                      : 8 bits
Scan type                      : MBAFF
Scan type, store method        : Interleaved fields
Scan order                     : Top Field First
Bits/(Pixel*Frame)             : 0.214
Stream size                    : 155 MiB (85%)
Color range                    : Limited
Color primaries                : BT.601 PAL
Transfer characteristics       : BT.470 System B, BT.470 System G
Matrix coefficients            : BT.601
Audio
ID                             : 802 (0x322)
Menu ID                        : 1 (0x1)
Format                         : MPEG Audio
Format version                 : Version 1
Format profile                 : Layer 2
Codec ID                       : 3
Duration                       : 9 min
Bit rate mode                  : Constant
Bit rate                       : 256 kb/s
Channel(s)                     : 2 channels
Sampling rate                  : 48.0 kHz
Compression mode               : Lossy
Stream size                    : 17.9 MiB (10%)
Language                       : English
 






Дипломная работа режиссёра А. Колбышева
Продолжительность: 00:32:27
В ролях: Владимир Аникин, Геннадий Гарбук, Анатолий Котенёв, Иван Мацкевич, Александр Анисимов
Описание: По рассказу В.Шукшина.
История случайной встречи таежного охотника Никитича и молодого парня, бежавшего из мест заключения…
Доп. информация:

Сценарист: Александр Колбышев
Оператор: Юрий Елхов
Композитор: Василий Кондрасюк
Художник: Александр Чертович
НАГРАДЫ, НОМИНАЦИИ, ФЕСТИВАЛИ
Специальная премия МОКСПН и фонда Хан. Крум (Болгария) имени Андрея Тарковского МКФ «Золотой Витязь-98»: конкурс студенческого кино и дебютного фильма.
Качество: DVB
Контейнер: TS
Видео кодек: H.264
Аудио кодек: MP2
Видео: MPEG4 Video (H264) 720(785)x576 (49:36) 25fps, 2 218 kb/s
Аудио : MPEG Audio 48000Hz stereo 256kbps
Код:
General
ID                             : 1 (0x1)
Complete name                  : D:Новая  земля 2Художественные фильмыЧерный ящик (1995) Яма (1996) Охота жить (1998)Черный ящик (1995) Яма (1996) Охота жить (1998)Охота жить (1998).ts
Format                         : MPEG-TS
File size                      : 605 MiB
Duration                       : 32 min
Overall bit rate mode          : Variable
Overall bit rate               : 2 605 kb/s
Video
ID                             : 801 (0x321)
Menu ID                        : 1 (0x1)
Format                         : AVC
Format/Info                    : Advanced Video Codec
Format profile                 : Main@L3
Format settings, CABAC         : Yes
Format settings, ReFrames      : 4 frames
Format settings, GOP           : M=4, N=24
Codec ID                       : 27
Duration                       : 32 min
Bit rate                       : 2 218 kb/s
Width                          : 720 pixels
Height                         : 576 pixels
Display aspect ratio           : 4:3
Frame rate                     : 25.000 FPS
Standard                       : PAL
Color space                    : YUV
Chroma subsampling             : 4:2:0
Bit depth                      : 8 bits
Scan type                      : MBAFF
Scan type, store method        : Separated fields
Scan order                     : Top Field First
Bits/(Pixel*Frame)             : 0.214
Stream size                    : 515 MiB (85%)
Color range                    : Limited
Color primaries                : BT.601 PAL
Transfer characteristics       : BT.470 System B, BT.470 System G
Matrix coefficients            : BT.601
Audio
ID                             : 802 (0x322)
Menu ID                        : 1 (0x1)
Format                         : MPEG Audio
Format version                 : Version 1
Format profile                 : Layer 2
Codec ID                       : 3
Duration                       : 32 min
Bit rate mode                  : Constant
Bit rate                       : 256 kb/s
Channel(s)                     : 2 channels
Sampling rate                  : 48.0 kHz
Compression mode               : Lossy
Stream size                    : 59.4 MiB (10%)
Language                       : English
 





Запись потока *.ts с наземного цифрового телеканала "Беларусь 3".
Благодарность: за помощь с недостающим материалом Bartimeyse и PavelDAS. Обоим большое спасибо!
Давно разыскивается. Представлен впервые в Инете!
Страна: Республика Беларусь
Студия: Беларусьфильм
Продолжительность: 00:09:59 + 00:09:46 + 00:32:27
Перевод: не требует
Файл
Кодек: AVC (H264)
Качество: DVB
Видео: MPEG4 Video (H264) 720(785)x576 (49:36) 25fps, ~2 218 kb/s
Звук: MPEG Audio 48000Hz stereo 256kbps



   Похожие торренты   Торрент   Размер 
В этой теме нет новых непрочитанных сообщений. Черный ящик / Яма / Охота жить (1998) DVB от AND03AND

8 | 1

972.08 МБ

В этой теме нет новых непрочитанных сообщений. Чёрный ящик / Black Box [s01] (2014) HDTVRip | L2; L1

28 | 28

5.66 ГБ

В этой теме нет новых непрочитанных сообщений. Чёрный ящик / Black Box [s01] (2014) HDTVRip | L2; L1

53 | 22

5.87 ГБ

В этой теме нет новых непрочитанных сообщений. Черный ящик / La Boîte noire (2005) HDRip

182 | 19

1.73 ГБ

В этой теме нет новых непрочитанных сообщений. Черный ящик / La Boite noire (Ришар Берри) [2005, триллер, детектив, HDRip] MVO+DVO

0 | 0

1.46 ГБ

В этой теме нет новых непрочитанных сообщений. Охота жить (2014) WEB-DLRip

0 | 0

1.37 ГБ

В этой теме нет новых непрочитанных сообщений. Земля, на которой нам жить... (2001) SATRip от AND03AND

3 | 11

387.84 МБ




Вы не можете начинать темы
Вы не можете отвечать на сообщения
Вы не можете редактировать свои сообщения
Вы не можете удалять свои сообщения
Вы не можете добавлять вложения

Перейти:  
 Вход
ppkBB3cker v.2 © 2008-2014 @ PPK
[ Time : 0.042s | 16 Queries | GZIP : Off ]

cron