img image001 image001 image001 image001 image001 image001 image001 image001 image001 image001 image001 image001 image001 image001 image001 image001

Planets Sun Sun Sun
Статистика раздачи
Автор: Nickolas3434 | Размер: 1.46 ГБ | Добавлен: 15 дек 2017
Раздают: 4    Качают: 1
Скачать торрент
Скачать торрент
Описание торрента

СообщениеДобавлено: 15 дек 2017 

Информация о фильме
Название: Авария – дочь мента
Год выхода: 1989
Жанр: драма
Режиссер: Михаил Туманишвили
В ролях: Оксана Арбузова, Владимир Ильин, Анастасия Вознесенская, Николай Пастухов, Борис Романов, Олег Царёв, Игорь Нефёдов, Сергей Воробьев, Юрий Шумило, Любовь Соколова, Александр Потапов, Алиса Признякова, Ирина Афонина, Владимир Басов младший, Николай Бармин, Валентина Березуцкая, Игорь Букатко, Вера Бурлакова, Мария Виноградова, Федор Гаврилов, Ян Пузыревский, Олег Савосин, Борис Юрченко
Описание: Остросюжетная версия традиционного конфликта поколений. Дочь — трудный подросток, «металлистка», отец — милиционер, «мент». У каждого из героев свои ценности, свой отдельный мир… Но когда приходит настоящая беда, они понимают, как много значат друг для друга. Спасая дочь, верный страж закона сам вершит правосудие…

Страна: СССР
Продолжительность: 01:33:16
Файл
Качество: DVDRip-AVC
Видео: 716x556@764х556, 25.000 fps, AVC, ~2052 kbps
Звук: Dolby AC3, 192 kbps, 2 ch

Общее
Уникальный идентификатор : 218752271616396525381540975528355915280 (0xA49227B01A792AD08B4D84A731C96610)
Полное имя : Авария дочь мента_1989-DVDRip-AVC
Формат : Matroska
Версия формата : Version 2
Размер файла : 1,46 Гбайт
Продолжительность : 1 ч. 33 м.
Общий поток : 2246 Кбит/сек
Дата кодирования : UTC 2014-03-29 00:32:49
Программа кодирования : mkvmerge v5.1.0 ('And so it goes') built on Nov 28 2011 23:58:28
Библиотека кодирования : libebml v1.2.3 + libmatroska v1.3.0
Видео
Идентификатор : 1
Формат : AVC
Формат/Информация : Advanced Video Codec
Профиль формата : High@L4.1
Параметр CABAC формата : Да
Параметр ReFrames формата : 15 кадров
Идентификатор кодека : V_MPEG4/ISO/AVC
Продолжительность : 1 ч. 33 м.
Битрейт : 2052 Кбит/сек
Ширина : 716 пикселей
Высота : 556 пикселей
Соотношение сторон : 1,374
Режим частоты кадров : Постоянный
Частота кадров : 25,000 кадров/сек
Цветовое пространство : YUV
Субдискретизация насыщенности : 4:2:0
Битовая глубина : 8 бит
Тип развёртки : Прогрессивная
Бит/(Пиксели*Кадры) : 0.206
Размер потока : 1,31 Гбайт (89%)
Библиотека кодирования : x264 core 142 r2409 d6b4e63
Настройки программы : cabac=1 / ref=15 / deblock=1:-2:-2 / analyse=0x3:0x133 / me=umh / subme=11 / psy=1 / psy_rd=1.10:0.20 / mixed_ref=1 / me_range=24 / chroma_me=1 / trellis=2 / 8x8dct=1 / cqm=0 / deadzone=21,11 / fast_pskip=0 / chroma_qp_offset=-3 / threads=12 / lookahead_threads=2 / sliced_threads=0 / nr=0 / decimate=0 / interlaced=0 / bluray_compat=0 / constrained_intra=0 / bframes=9 / b_pyramid=2 / b_adapt=2 / b_bias=0 / direct=3 / weightb=1 / open_gop=0 / weightp=2 / keyint=250 / keyint_min=25 / scenecut=40 / intra_refresh=0 / rc=2pass / mbtree=0 / bitrate=2052 / ratetol=1.0 / qcomp=0.80 / qpmin=0 / qpmax=39 / qpstep=4 / cplxblur=20.0 / qblur=0.5 / ip_ratio=1.40 / pb_ratio=1.30 / aq=1:1.00
Default : Да
Forced : Нет
Основные цвета : BT.601 PAL
Характеристики трансфера : BT.470 System B, BT.470 System G
Коэффициенты матрицы : BT.601
Аудио
Идентификатор : 2
Формат : AC-3
Формат/Информация : Audio Coding 3
Расширение режима : CM (complete main)
Параметр Endianness формата : Big
Идентификатор кодека : A_AC3
Продолжительность : 1 ч. 33 м.
Вид битрейта : Постоянный
Битрейт : 192 Кбит/сек
Каналы : 2 канала
Расположение каналов : Front: L R
Частота : 48,0 КГц
Битовая глубина : 16 бит
Метод сжатия : С потерями
Размер потока : 128 Мбайт (9%)
Default : Да
Forced : Нет



   Похожие торренты   Торрент   Размер 
В этой теме нет новых непрочитанных сообщений. Авария – дочь мента (1989) DVDRip

58 | 7

710.53 МБ

В этой теме нет новых непрочитанных сообщений. Авария - дочь мента (1989) DVDRip

1016 | 181

1.45 ГБ

В этой теме нет новых непрочитанных сообщений. Авария – дочь мента (1989) DVDRip от Scarabey

36 | 3

1.44 ГБ

В этой теме нет новых непрочитанных сообщений. Генеральская дочь / Дочь генерала / The General's Daughter (1999) WEB-DLRip-AVC | P, P2, A

80 | 27

3.4 ГБ

В этой теме нет новых непрочитанных сообщений. Рони, дочь разбойника / Ронья, дочь разбойника / Sanzoku no Musume Ronja [TV] [01-05 из 26] (2014) HDTVRip 720p | LE-Production

57 | 14

3.05 ГБ

В этой теме нет новых непрочитанных сообщений. Рони, дочь разбойника / Ронья, дочь разбойника / Sanzoku no Musume Ronja [TV] [01-05 из 26] (2014) HDTVRip 720p | LE-Production

22 | 48

3.52 ГБ

В этой теме нет новых непрочитанных сообщений. Рони, дочь разбойника / Ронья, дочь разбойника / Sanzoku no Musume Ronja [TV] [01-20 из 26] (2014) HDTVRip 720p | LE-Production

5 | 4

10.05 ГБ




Вы не можете начинать темы
Вы не можете отвечать на сообщения
Вы не можете редактировать свои сообщения
Вы не можете удалять свои сообщения
Вы не можете добавлять вложения

Перейти:  
 Вход
ppkBB3cker v.2 © 2008-2014 @ PPK
[ Time : 0.035s | 19 Queries | GZIP : Off ]

cron