img image001 image001 image001 image001 image001 image001 image001 image001 image001 image001 image001 image001 image001 image001 image001

Planets Sun Sun Sun
Статистика раздачи
Автор: Nickolas3434 | Размер: 1.09 ГБ | Добавлен: 22 янв 2018
Раздают: 6    Качают: 0
Скачать торрент
Скачать торрент
Описание торрента

СообщениеДобавлено: 22 янв 2018 


Мы "В КОНТАКТЕ"


Страна: СССР
Производство: Киностудия им. А. Довженко
Жанр: мелодрама
Год выпуска: 1959
Продолжительность: 01:13:42
Перевод: Не требуется
Cубтитры: нет
Оригинальная аудиодорожка: русский
Режиссер: Исаак Шмарук
В ролях:
Алла Ларионова, Николай Рыбников, Михаил Жаров, Светлана Симигина, Сергей Петров, Эрдни Манджиев, Жанна Дмитренко, Константин Музыченко, Апрелина Иванова, Тамара Карачаева, Вова Краснов...
Об актёрах подробней
Описание:
Когда-то, будучи ещё студентом Киевского пединститута, Глеб (Николай Рыбников) познакомился со студенткой консерватории Лизой (Алла Ларионова). Молодые люди полюбили друг друга. Но после службы в армии Глеб поехал работать на целинные земли, а Лиза осталась в Киеве, выйдя замуж за нелюбимого человека.





Исходник: DVB
Качество видео: SATRip
Формат видео: AVI
Видео: 704х528 (4:3), 25 fps, XviD ~ 1916 kbps avg, 0.206 bit/pixel
Аудио: 48 kHz, Dolby Digital AC3 2.0, 192 kbps
Раздача от:
Общее
Полное имя : Mlechnyy.put.1959.SATRip_[New-team]_by_AVP_Studio.avi
Формат : AVI
Формат/Информация : Audio Video Interleave
Размер файла : 1,09 Гбайт
Продолжительность : 1 ч. 13 м.
Общий поток : 2117 Кбит/сек
Программа кодирования : VirtualDubMod 1.5.10.3 | www.virtualdub-fr.org || (build 2550/release)
Библиотека кодирования : VirtualDubMod build 2550/release
Видео
Идентификатор : 0
Формат : MPEG-4 Visual
Профиль формата : Advanced Simple@L5
Настройки формата : BVOP1 / Custom Matrix
Параметр BVOP формата : 1
Параметр QPel формата : Нет
Параметр GMC формата : Без точки перехода
Параметр матрицы формата : Выборочная
Идентификатор кодека : XVID
Идентификатор кодека/Подсказка : XviD
Продолжительность : 1 ч. 13 м.
Битрейт : 1916 Кбит/сек
Ширина : 704 пикселя
Высота : 528 пикселей
Соотношение сторон : 4:3
Частота кадров : 25,000 кадров/сек
Цветовое пространство : YUV
Субдискретизация насыщенности : 4:2:0
Битовая глубина : 8 бит
Тип развёртки : Прогрессивная
Метод сжатия : С потерями
Бит/(Пиксели*Кадры) : 0.206
Размер потока : 1010 Мбайт (90%)
Библиотека кодирования : XviD 73
Аудио
Идентификатор : 1
Формат : AC-3
Формат/Информация : Audio Coding 3
Идентификатор кодека : 2000
Продолжительность : 1 ч. 13 м.
Вид битрейта : Постоянный
Битрейт : 192 Кбит/сек
Каналы : 2 канала
Расположение каналов : Front: L R
Частота : 48,0 КГц
Частота кадров : 31,250 кадров/сек (1536 SPF)
Битовая глубина : 16 бит
Метод сжатия : С потерями
Размер потока : 101 Мбайт (9%)
Выравнивание : Разделение по промежуткам
Продолжительность промежутка : 40 мс. (1,00 видеокадр)
Время предзагрузки промежутка : 500 мс





   Похожие торренты   Торрент   Размер 
В этой теме нет новых непрочитанных сообщений. Млечный путь (1959) SATRip-AVC от New-Team

8 | 0

1.09 ГБ

В этой теме нет новых непрочитанных сообщений. Млечный путь (2015) HDTVRip-AVC от Files-x

3 | 1

1.37 ГБ

В этой теме нет новых непрочитанных сообщений. Млечный путь (2015) WEB-DLRip 1080р

104 | 1

2.71 ГБ

В этой теме нет новых непрочитанных сообщений. Млечный путь (2015) WEB-DLRip от GeneralFilm

9 | 0

744.99 МБ

В этой теме нет новых непрочитанных сообщений. Млечный путь (2015) WEB-DLRip 720р

29 | 0

1.36 ГБ

В этой теме нет новых непрочитанных сообщений. Млечный путь (2015) HDTVRip от Files-x

231 | 4

1.37 ГБ

В этой теме нет новых непрочитанных сообщений. Виктория Черенцова - Я выхожу на млечный путь (2011) MP3

0 | 59

123.52 МБ




Вы не можете начинать темы
Вы не можете отвечать на сообщения
Вы не можете редактировать свои сообщения
Вы не можете удалять свои сообщения
Вы не можете добавлять вложения

Перейти:  
 Вход
ppkBB3cker v.2 © 2008-2014 @ PPK
[ Time : 0.032s | 18 Queries | GZIP : Off ]

cron