img image001 image001 image001 image001 image001 image001 image001 image001 image001 image001 image001 image001 image001 image001 image001 image001

Planets Sun Sun Sun
Статистика раздачи
Автор: Nickolas3434 | Размер: 2.32 ГБ | Добавлен: 22 янв 2018
Раздают: 3    Качают: 0
Скачать торрент
Скачать торрент
Описание торрента

СообщениеДобавлено: 22 янв 2018 

Василиса прекрасная

Страна: СССР
Жанр: Сказка
Год выпуска: 1939
Продолжительность: 01:09:58
Перевод: Не требуется
Режиссер: Александр Роу
В ролях: Георгий Милляр, Сергей Столяров, Лев Потёмкин, Никита Кондратьев, Валентина Сорогожская,
Ирина Зарубина, Лидия Сухаревская, Татьяна Барышева, М. Скавронская, Мария Барабанова
Описание: По пьесе-сказке Г. Владычиной, написанной по мотивам русских народных сказок («Царевна-лягушка» и др.).
Задумал отец женить трёх своих сыновей. Вышли братья в чистое поле и пустили стрелы в разные стороны. Стрела старшего сына упала на боярский двор, к боярской дочери, стрела среднего сына упала на двор купеческий, а стрела Ивана, младшего сына, упала на болото к лягушке-квакушке… Завистливые жёны братьев сожгли лягушечью кожу Василисы, и Змей-Горыныч унёс её в свое тёмное царство. Злая Баба-Яга стережёт Василису Прекрасную. Добрый молодец Иван отправляется вызволять свою любимую из лап чудища. Любовь, отвага и смекалка помогают одолеть тёмные силы…

Кодек: х264
Качество: DVDRip-AVC
Видео: MPEG-4 AVC, 720х576@768x576, 25 fps, 4150 Кбит/с
Аудио: Русский АС3, 6h, 448 Кбит/с, АС3, 1h, 128 Кбит/с
Субтитры: Русские

x264 [info]: frame I:780 Avg QP:18.41 size: 92556
x264 [info]: frame P:28007 Avg QP:20.15 size: 43736
x264 [info]: frame B:76416 Avg QP:22.31 size: 11594
Общее
Уникальный идентификатор : 180374269643972042215244776300352566546 (0x87B2D21A1429C768809E9852EF2EF512)
Полное имя : E:Мои рипыВасилиса прекрасная 1939_DVDRip-AVC_KORSAR.mkv
Формат : Matroska
Версия формата : Version 2
Размер файла : 2,32 Гбайт
Продолжительность : 1 ч. 10 м.
Общий поток : 4728 Кбит/сек
Дата кодирования : UTC 2018-01-17 15:01:43
Программа кодирования : mkvmerge v5.8.0 ('No Sleep / Pillow') built on Sep 2 2012 15:37:04
Библиотека кодирования : libebml v1.2.3 + libmatroska v1.3.0
Видео
Идентификатор : 1
Формат : AVC
Формат/Информация : Advanced Video Codec
Профиль формата : High@L4.1
Настройки формата : CABAC / 15 Ref Frames
Параметр CABAC формата : Да
Параметр RefFrames формата : 15 кадров
Идентификатор кодека : V_MPEG4/ISO/AVC
Продолжительность : 1 ч. 10 м.
Битрейт : 4150 Кбит/сек
Ширина : 720 пикселей
Высота : 576 пикселей
Соотношение сторон : 4:3
Режим частоты кадров : Постоянный
Частота кадров : 25,000 кадров/сек
Стандарт вещания : PAL
Цветовое пространство : YUV
Субдискретизация насыщенности : 4:2:0
Битовая глубина : 8 бит
Тип развёртки : Прогрессивная
Бит/(Пиксели*Кадры) : 0.400
Размер потока : 1,99 Гбайт (86%)
Библиотека кодирования : x264 core 152 r2851kMod ba24899
Настройки программы : cabac=1 / ref=15 / deblock=1:-2:-1 / analyse=0x3:0x133 / me=umh / subme=11 / psy=1 / fade_compensate=0.00 / psy_rd=1.05:0.10 / mixed_ref=1 / me_range=48 / chroma_me=1 / trellis=2 / 8x8dct=1 / cqm=0 / deadzone=21,11 / fast_pskip=0 / chroma_qp_offset=-3 / threads=12 / lookahead_threads=2 / sliced_threads=0 / nr=0 / decimate=0 / interlaced=0 / bluray_compat=0 / constrained_intra=0 / bframes=8 / b_pyramid=2 / b_adapt=2 / b_bias=0 / direct=3 / weightb=1 / open_gop=0 / weightp=2 / keyint=250 / keyint_min=25 / scenecut=40 / intra_refresh=0 / rc_lookahead=40 / rc=2pass / mbtree=0 / bitrate=4150 / ratetol=1.0 / qcomp=0.60 / qpmin=0 / qpmax=39 / qpstep=4 / cplxblur=20.0 / qblur=0.5 / vbv_maxrate=50000 / vbv_bufsize=62500 / nal_hrd=none / filler=0 / ip_ratio=1.25 / pb_ratio=1.30 / aq=1:0.90
Язык : English
Default : Да
Forced : Нет
Цветовой диапазон : Limited
Основные цвета : BT.601 PAL
Характеристики трансфера : BT.470 System B, BT.470 System G
Коэффициенты матрицы : BT.470 System B, BT.470 System G
Аудио #1
Идентификатор : 2
Формат : AC-3
Формат/Информация : Audio Coding 3
Параметр Endianness формата : Big
Идентификатор кодека : A_AC3
Продолжительность : 1 ч. 10 м.
Вид битрейта : Постоянный
Битрейт : 448 Кбит/сек
Каналы : 6 каналов
Расположение каналов : Front: L C R, Side: L R, LFE
Частота : 48,0 КГц
Частота кадров : 31,250 кадров/сек (1536 SPF)
Битовая глубина : 16 бит
Метод сжатия : С потерями
Задержка видео : 7 мс.
Размер потока : 225 Мбайт (9%)
Язык : Russian
Default : Нет
Forced : Нет
Аудио #2
Идентификатор : 3
Формат : AC-3
Формат/Информация : Audio Coding 3
Параметр Endianness формата : Big
Идентификатор кодека : A_AC3
Продолжительность : 1 ч. 10 м.
Вид битрейта : Постоянный
Битрейт : 128 Кбит/сек
Каналы : 1 канал
Расположение каналов : Front: C
Частота : 48,0 КГц
Частота кадров : 31,250 кадров/сек (1536 SPF)
Битовая глубина : 16 бит
Метод сжатия : С потерями
Размер потока : 64,2 Мбайт (3%)
Язык : Russian
Default : Да
Forced : Нет
Текст
Идентификатор : 4
Формат : UTF-8
Идентификатор кодека : S_TEXT/UTF8
Идентификатор кодека/Информация : UTF-8 Plain Text
Default : Да
Forced : Нет




   Похожие торренты   Торрент   Размер 
В этой теме нет новых непрочитанных сообщений. Василиса Прекрасная (1939) DVDRip-AVC от New-Team

110 | 14

1.09 ГБ

В этой теме нет новых непрочитанных сообщений. Василиса Прекрасная (1939) DVDRip от New-Team

192 | 23

1.09 ГБ

В этой теме нет новых непрочитанных сообщений. Василиса Прекрасная (1939) DVDRip от New-Team

84 | 12

742.76 МБ

В этой теме нет новых непрочитанных сообщений. Василиса Прекрасная (1977) DVDRip-AVC

16 | 1

204.74 МБ

В этой теме нет новых непрочитанных сообщений. Василиса Прекрасная (1977) DVDRip-AVC от SDIncorporation

49 | 3

293.38 МБ

В этой теме нет новых непрочитанных сообщений. Василиса Прекрасная (1977) HDTVRip 720p от SDIncorporation

74 | 8

626.5 МБ

В этой теме нет новых непрочитанных сообщений. Моя прекрасная леди / My Fair Lady (1964) BDRip 720p от KORSAR | P, A

12 | 5

12.93 ГБ




Вы не можете начинать темы
Вы не можете отвечать на сообщения
Вы не можете редактировать свои сообщения
Вы не можете удалять свои сообщения
Вы не можете добавлять вложения

Перейти:  
 Вход
ppkBB3cker v.2 © 2008-2014 @ PPK
[ Time : 0.025s | 15 Queries | GZIP : Off ]

cron