img image001 image001 image001 image001 image001 image001 image001 image001 image001 image001 image001 image001 image001 image001 image001 image001

Planets Sun Sun Sun
Статистика раздачи
Автор: Nickolas3434 | Размер: 1.09 ГБ | Добавлен: 22 янв 2018
Раздают: 0    Качают: 0
Скачать торрент
Скачать торрент
Описание торрента

СообщениеДобавлено: 22 янв 2018 


Мы "В КОНТАКТЕ"


Страна: СССР
Производство: К/ст. им. А. Довженко
Жанр: фантастика, приключения
Год выпуска: 1959
Продолжительность: 01:13:32
Перевод: Не требуется
Cубтитры: нет
Оригинальная аудиодорожка: русский
Режиссер: Александр Козырь, Михаил Карюков
В ролях:
Иван Переверзев, Александр Шворин, Константин Барташевич, Гурген Тонунц, Валентин Черняк, Виктор Добровольский, Александра Попова, Таисия Литвиненко, Лариса Борисенко, Лев Лобов, Сергей Филимонов, Мария Самойлова, Михаил Белоусов...
Об актёрах подробней
Описание:
Советский писатель Троян под впечатлением встречи с ученым Корневым пишет фантастический рассказ, главными героями которого становятся Корнев и его сотрудники, работающие над созданием космических кораблей. По сюжету этого рассказа, научная экспедиция во главе с Корневым отправляется на орбитальную космическую станцию, откуда должен быть произведен запуск корабля к Марсу.





Источник: DVB
Качество видео: SATRip
Формат видео: AVI
Видео: 704x528 (4:3), 25 fps, XviD ~ 1919 kbps avg, 0.207 bit/pixel
Аудио: 48 kHz, Dolby Digital AC3 2.0, 192 kbps
Раздача от:
Общее
Полное имя : Nebo.zovyot.1959.SATRip_[New-team]_by_AVP_Studio.avi
Формат : AVI
Формат/Информация : Audio Video Interleave
Размер файла : 1,09 Гбайт
Продолжительность : 1 ч. 13 м.
Общий поток : 2121 Кбит/сек
Программа кодирования : VirtualDubMod 1.5.10.3 | www.virtualdub-fr.org || (build 2550/release)
Библиотека кодирования : VirtualDubMod build 2550/release
Видео
Идентификатор : 0
Формат : MPEG-4 Visual
Профиль формата : Advanced Simple@L5
Настройки формата : BVOP1 / Custom Matrix
Параметр BVOP формата : 1
Параметр QPel формата : Нет
Параметр GMC формата : Без точки перехода
Параметр матрицы формата : Выборочная
Идентификатор кодека : XVID
Идентификатор кодека/Подсказка : XviD
Продолжительность : 1 ч. 13 м.
Битрейт : 1919 Кбит/сек
Ширина : 704 пикселя
Высота : 528 пикселей
Соотношение сторон : 4:3
Частота кадров : 25,000 кадров/сек
Цветовое пространство : YUV
Субдискретизация насыщенности : 4:2:0
Битовая глубина : 8 бит
Тип развёртки : Прогрессивная
Метод сжатия : С потерями
Бит/(Пиксели*Кадры) : 0.207
Размер потока : 1010 Мбайт (90%)
Библиотека кодирования : XviD 73
Аудио
Идентификатор : 1
Формат : AC-3
Формат/Информация : Audio Coding 3
Идентификатор кодека : 2000
Продолжительность : 1 ч. 13 м.
Вид битрейта : Постоянный
Битрейт : 192 Кбит/сек
Каналы : 2 канала
Расположение каналов : Front: L R
Частота : 48,0 КГц
Частота кадров : 31,250 кадров/сек (1536 SPF)
Битовая глубина : 16 бит
Метод сжатия : С потерями
Размер потока : 101 Мбайт (9%)
Выравнивание : Разделение по промежуткам
Продолжительность промежутка : 40 мс. (1,00 видеокадр)
Время предзагрузки промежутка : 500 мс





   Похожие торренты   Торрент   Размер 
В этой теме нет новых непрочитанных сообщений. Небо зовет (1959) SATRip-AVC от New-Team

7 | 0

1.09 ГБ

В этой теме нет новых непрочитанных сообщений. Небо зовет (1959) DVDRip-AVC

108 | 22

1.54 ГБ

В этой теме нет новых непрочитанных сообщений. Тучи покидают небо (1959) DVDRip от New-Team

2 | 0

1.09 ГБ

В этой теме нет новых непрочитанных сообщений. Тучи покидают небо (1959) DVDRip-AVC от New-Team

4 | 0

1.09 ГБ

В этой теме нет новых непрочитанных сообщений. Тучи покидают небо (1959) DVDRip от New-Team

1 | 0

746.93 МБ

В этой теме нет новых непрочитанных сообщений. Море зовет (1956) SATRip от New-Team

4 | 0

1.09 ГБ

В этой теме нет новых непрочитанных сообщений. Море зовет (1956) SATRip от New-Team

0 | 3

745.7 МБ




Вы не можете начинать темы
Вы не можете отвечать на сообщения
Вы не можете редактировать свои сообщения
Вы не можете удалять свои сообщения
Вы не можете добавлять вложения

Перейти:  
 Вход
ppkBB3cker v.2 © 2008-2014 @ PPK
[ Time : 0.067s | 16 Queries | GZIP : Off ]

cron