img image001 image001 image001 image001 image001 image001 image001 image001 image001 image001 image001 image001 image001 image001 image001 image001

Planets Sun Sun Sun
Статистика раздачи
Автор: Nickolas3434 | Размер: 5.95 ГБ | Добавлен: 22 янв 2018
Раздают: 36    Качают: 0
Скачать торрент
Скачать торрент
Описание торрента

СообщениеДобавлено: 22 янв 2018 

Сибирь. Монамур

Страна: Россия
Студия: Tundra Film
Жанр: Драма
Год выпуска: 2011
Продолжительность: 01:44:39
Перевод: Не требуется
Режиссер: Вячеслав Росс
В ролях: Петр Зайченко, Михаил Процько, Сергей Новиков, Лидия Байрашевская, Николай Козак, Максим Емельянов, Соня Росс, Сергей Пускепалис, Юрий Гумиров, Марианна Шульц
Описание: Сибирь. Поздняя осень. В тайге, в заброшенной деревне живет старик — старовер Иван и его 7-летний внук Лешка. Они ждут отца мальчика, который ушел 2 года назад и не вернулся. Стая бродячих собак пожирает все живое в окрестностях. Мальчик дружит с одной из этих собак, за это старик его часто ругает. Иногда дальний родственник дядя Юра привозит им еду.

Кодек: х264
Качество: BDRip 720p
Видео: MPEG-4 AVC, 1280х536, 24 fps, 7500 Кбит/с
Аудио: АС3, 6h, 640 Кбит/с
Главы: Есть
x264 [info]: frame I:749 Avg QP:17.32 size:168900
x264 [info]: frame P:31108 Avg QP:19.66 size: 71666
x264 [info]: frame B:118852 Avg QP:21.64 size: 29701
Общее
Уникальный идентификатор : 171011502068375835305387452538014367030 (0x80A79E0532A47B8F8B58ED3358AF7D36)
Полное имя : E:Мои рипыСибирь монамур 2011_BDRip 720p_KORSAR.mkv
Формат : Matroska
Версия формата : Version 2
Размер файла : 5,95 Гбайт
Продолжительность : 1 ч. 44 м.
Общий поток : 8140 Кбит/сек
Название фильма : KORSAR
Дата кодирования : UTC 2018-01-19 17:26:28
Программа кодирования : mkvmerge v5.8.0 ('No Sleep / Pillow') built on Sep 2 2012 15:37:04
Библиотека кодирования : libebml v1.2.3 + libmatroska v1.3.0
Видео
Идентификатор : 1
Формат : AVC
Формат/Информация : Advanced Video Codec
Профиль формата : High@L4.1
Настройки формата : CABAC / 12 Ref Frames
Параметр CABAC формата : Да
Параметр RefFrames формата : 12 кадров
Идентификатор кодека : V_MPEG4/ISO/AVC
Продолжительность : 1 ч. 44 м.
Битрейт : 7500 Кбит/сек
Ширина : 1280 пикселей
Высота : 536 пикселей
Соотношение сторон : 2,40:1
Режим частоты кадров : Постоянный
Частота кадров : 24,000 кадра/сек
Цветовое пространство : YUV
Субдискретизация насыщенности : 4:2:0
Битовая глубина : 8 бит
Тип развёртки : Прогрессивная
Бит/(Пиксели*Кадры) : 0.455
Размер потока : 5,36 Гбайт (90%)
Библиотека кодирования : x264 core 152 r2851kMod ba24899
Настройки программы : cabac=1 / ref=12 / deblock=1:-2:-2 / analyse=0x3:0x113 / me=umh / subme=11 / psy=1 / fade_compensate=0.00 / psy_rd=1.02:0.06 / mixed_ref=1 / me_range=48 / chroma_me=1 / trellis=2 / 8x8dct=1 / cqm=0 / deadzone=21,11 / fast_pskip=0 / chroma_qp_offset=-3 / threads=12 / lookahead_threads=3 / sliced_threads=0 / nr=0 / decimate=0 / interlaced=0 / bluray_compat=0 / constrained_intra=0 / bframes=16 / b_pyramid=2 / b_adapt=2 / b_bias=0 / direct=3 / weightb=1 / open_gop=0 / weightp=2 / keyint=250 / keyint_min=24 / scenecut=40 / intra_refresh=0 / rc_lookahead=40 / rc=2pass / mbtree=0 / bitrate=7500 / ratetol=1.0 / qcomp=0.60 / qpmin=0 / qpmax=39 / qpstep=4 / cplxblur=20.0 / qblur=0.5 / vbv_maxrate=50000 / vbv_bufsize=62500 / nal_hrd=none / filler=0 / ip_ratio=1.25 / pb_ratio=1.30 / aq=1:0.90
Язык : English
Default : Да
Forced : Нет
Цветовой диапазон : Limited
Основные цвета : BT.709
Характеристики трансфера : BT.709
Коэффициенты матрицы : BT.709
Аудио
Идентификатор : 2
Формат : AC-3
Формат/Информация : Audio Coding 3
Параметр Endianness формата : Big
Идентификатор кодека : A_AC3
Продолжительность : 1 ч. 44 м.
Вид битрейта : Постоянный
Битрейт : 640 Кбит/сек
Каналы : 6 каналов
Расположение каналов : Front: L C R, Side: L R, LFE
Частота : 48,0 КГц
Частота кадров : 31,250 кадров/сек (1536 SPF)
Битовая глубина : 16 бит
Метод сжатия : С потерями
Размер потока : 479 Мбайт (8%)
Язык : Russian
Default : Да
Forced : Нет
Меню
00:00:00.000 : en:Chapter 01
00:09:54.488 : en:Chapter 02
00:20:43.340 : en:Chapter 03
00:29:21.072 : en:Chapter 04
00:38:34.768 : en:Chapter 05
00:49:13.879 : en:Chapter 06
00:59:29.763 : en:Chapter 07
01:09:12.680 : en:Chapter 08
01:19:12.622 : en:Chapter 09
01:30:37.437 : en:Chapter 10
01:39:51.342 : en:Chapter 11
01:44:33.060 : en:Chapter 12





   Похожие торренты   Торрент   Размер 
В этой теме нет новых непрочитанных сообщений. Сибирь. Монамур (2011) BDRip 720p

18 | 9

5.86 ГБ

В этой теме нет новых непрочитанных сообщений. Сибирь. Монамур (2011) BDRip от HELLYWOOD

37 | 7

2 ГБ

В этой теме нет новых непрочитанных сообщений. Сибирь. Монамур (2011) BDRip-AVC от Rulya74

16 | 4

1.46 ГБ

В этой теме нет новых непрочитанных сообщений. Сибирь. Монамур (2011) BDRip 1080p | Лицензия

60 | 2

8.44 ГБ

В этой теме нет новых непрочитанных сообщений. Сибирь. Монамур (2011) BDRip от HQCLUB | Лицензия

85 | 7

2 ГБ

В этой теме нет новых непрочитанных сообщений. Сибирь. Монамур (2011) Blu-Ray

0 | 4

19.26 ГБ

В этой теме нет новых непрочитанных сообщений. Сибирь. Монамур (2011) HDRip

183 | 9

746.31 МБ




Вы не можете начинать темы
Вы не можете отвечать на сообщения
Вы не можете редактировать свои сообщения
Вы не можете удалять свои сообщения
Вы не можете добавлять вложения

Перейти:  
 Вход
ppkBB3cker v.2 © 2008-2014 @ PPK
[ Time : 0.029s | 15 Queries | GZIP : Off ]

cron