img image001 image001 image001 image001 image001 image001 image001 image001 image001 image001 image001 image001 image001 image001 image001 image001

Planets Sun Sun Sun
Статистика раздачи
Автор: Nickolas3434 | Размер: 746.83 МБ | Добавлен: 22 янв 2018
Раздают: 40    Качают: 8
Скачать торрент
Скачать торрент
Описание торрента

СообщениеДобавлено: 22 янв 2018 

Информация о фильме
Название: Жить
Год выхода: 2012
Жанр: драма
Режиссер: Василий Сигарев
В ролях: Яна Троянова, Алексей Филимонов, Ольга Лапшина, Евгений Сытый, Анна Уколова, Марина Гаврилова, Саша Гаврилова, Дмитрий Куличков, Яна Сексте, Ирма Арендт
О фильме :
Три параллельные истории о людях, которые никогда не встретятся. Их объединяет одно горе — потеря самых близких и любимых людей. Каждый герой киноленты находится всего в шаге от своего истинного счастья, но одно мгновение рушит все надежды и мечты. В картине описаны страдания после смерти детей, супруга и папы. Этот фильм повествует о гибели парня, только что обвенчавшегося со своей подругой, о страшной аварии, где разбиваются маленькие девочки, о ребёнке, отец которого уже никогда к нему не вернётся. И главная загадка для всех персонажей: что делать дальше после случившегося?

Выпущено: Россия
Студия: Фонд кино, Кинокомпания Коктебель
Продолжительность: 01:59:01
Язык: Русский
Файл
Формат: MKV
Качество: DVDRip-AVC
Видео: MPEG-4 AVC, 720x388, ~ 799 Кбит/с
Аудио: AAC-LC, 2 ch, ~ 76 Кбит/с
Общее
Уникальный идентификатор : 216723387362539115216596606872480304098 (0xA30B67F8991833C3855F949129FECBE2)
Полное имя : D:MOVIESZhit.2012.ExKinoRay.mkv
Формат : Matroska
Версия формата : Version 4 / Version 2
Размер файла : 747 Мбайт
Продолжительность : 1 ч. 59 м.
Общий поток : 877 Кбит/сек
Дата кодирования : UTC 2018-01-21 05:23:48
Программа кодирования : mkvmerge v15.0.0 ('Duel with the Devil') 64-bit
Библиотека кодирования : libebml v1.3.5 + libmatroska v1.4.5
Видео
Идентификатор : 1
Формат : AVC
Формат/Информация : Advanced Video Codec
Профиль формата : High@L4.1
Параметр CABAC формата : Да
Параметр RefFrames формата : 10 кадров
Идентификатор кодека : V_MPEG4/ISO/AVC
Продолжительность : 1 ч. 59 м.
Битрейт : 799 Кбит/сек
Ширина : 720 пикселей
Высота : 388 пикселей
Соотношение сторон : 1,85:1
Режим частоты кадров : Постоянный
Частота кадров : 25,000 кадров/сек
Цветовое пространство : YUV
Субдискретизация насыщенности : 4:2:0
Битовая глубина : 8 бит
Тип развёртки : Прогрессивная
Бит/(Пиксели*Кадры) : 0.114
Размер потока : 680 Мбайт (91%)
Библиотека кодирования : x264 core 152 r2851 ba24899
Настройки программы : cabac=1 / ref=10 / deblock=1:-3:-3 / analyse=0x3:0x133 / me=umh / subme=11 / psy=1 / psy_rd=1.00:0.12 / mixed_ref=1 / me_range=32 / chroma_me=1 / trellis=2 / 8x8dct=1 / cqm=0 / deadzone=21,11 / fast_pskip=0 / chroma_qp_offset=-3 / threads=6 / lookahead_threads=1 / sliced_threads=0 / nr=0 / decimate=0 / interlaced=0 / bluray_compat=0 / constrained_intra=0 / bframes=10 / b_pyramid=2 / b_adapt=2 / b_bias=0 / direct=3 / weightb=1 / open_gop=0 / weightp=2 / keyint=250 / keyint_min=24 / scenecut=40 / intra_refresh=0 / rc_lookahead=40 / rc=2pass / mbtree=0 / bitrate=799 / ratetol=1.0 / qcomp=0.60 / qpmin=0 / qpmax=69 / qpstep=4 / cplxblur=20.0 / qblur=0.5 / vbv_maxrate=50000 / vbv_bufsize=62500 / nal_hrd=none / filler=0 / ip_ratio=1.40 / pb_ratio=1.30 / aq=1:1.00
Default : Да
Forced : Нет
Аудио
Идентификатор : 2
Формат : AAC
Формат/Информация : Advanced Audio Codec
Профиль формата : LC
Идентификатор кодека : A_AAC
Продолжительность : 1 ч. 59 м.
Битрейт : 76,0 Кбит/сек
Каналы : 2 канала
Расположение каналов : Front: L R
Частота : 48,0 КГц
Частота кадров : 46,875 кадров/сек (1024 SPF)
Метод сжатия : С потерями
Задержка видео : 9 мс.
Размер потока : 64,7 Мбайт (9%)
Язык : Russian
Default : Да
Forced : Нет


Релиз от:



   Похожие торренты   Торрент   Размер 
В этой теме нет новых непрочитанных сообщений. Жить (2012) DVDRip | Лицензия

412 | 15

1.46 ГБ

В этой теме нет новых непрочитанных сообщений. Жить (2012) DVDRip | Лицензия

59 | 5

2.05 ГБ

В этой теме нет новых непрочитанных сообщений. Жить (2012) DVDRip от Scarabey | Лицензия

47 | 7

743.45 МБ

В этой теме нет новых непрочитанных сообщений. Жить (2012) DVDRip | КПК от Generalfilm | Лицензия

8 | 2

407.71 МБ

В этой теме нет новых непрочитанных сообщений. Жить, чтобы жить / Vivre pour vivre (1967) DVDRip | P, Sub

90 | 31

2.06 ГБ

В этой теме нет новых непрочитанных сообщений. Жить, чтобы жить / Vivre pour vivre (1967) DVDRip-AVC

8 | 2

1.9 ГБ

В этой теме нет новых непрочитанных сообщений. Жить (2010) HDTVRip-AVC от ExKinoRay

65 | 1

745.7 МБ




Вы не можете начинать темы
Вы не можете отвечать на сообщения
Вы не можете редактировать свои сообщения
Вы не можете удалять свои сообщения
Вы не можете добавлять вложения

Перейти:  
 Вход
ppkBB3cker v.2 © 2008-2014 @ PPK
[ Time : 0.042s | 19 Queries | GZIP : Off ]

cron