img image001 image001 image001 image001 image001 image001 image001 image001 image001 image001 image001 image001 image001 image001 image001 image001

Planets Sun Sun Sun
Статистика раздачи
Автор: Nickolas3434 | Размер: 2.68 ГБ | Добавлен: 22 янв 2018
Раздают: 1    Качают: 0
Скачать торрент
Скачать торрент
Описание торрента

СообщениеДобавлено: 22 янв 2018 

Выбор

Год выпуска: 1987
Жанр: Драма
Продолжительность: 01:13:10, 01:00:40
Перевод: Не требуется
Режиссер: Владимир Наумов
В ролях: Наталья Белохвостикова, Михаил Ульянов, Альгис Матуленис, Елена Фадеева, Вацлав Дворжецкий, Леонид Плешаков, Константин Жигулев, Анастасия Деревщикова, Александр Кознов, Борис Щербаков и др.
Описание: В жизни московского художника, его жены и взрослой дочери происходит неожиданное событие - встреча с другом юности родителей, которого все считали погибшим на фронте. Каждый из героев оказывается перед необходимостью сделать нелегкий нравственный выбор: кто-то между жестокостью и состраданием, ненавистью и любовью; кто-то - как много лет назад - между жизнью и смертью...

Кодек: х264
Качество: DVDRip-AVC
Видео: MPEG-4 AVC, 692х574@738x574 25 fps, 2950 Кбит/с
Аудио: AC3, 2h, 192 Кбит/с

x264 [info]: frame I:515 Avg QP:16.67 size: 78328
x264 [info]: frame P:25183 Avg QP:19.78 size: 28776
x264 [info]: frame B:84056 Avg QP:22.21 size: 10159
Общее
Уникальный идентификатор : 253621912694984627642903063280093217924 (0xBECDCDBA1E83E3EA987C1084964FC484)
Полное имя : E:Мои рипыВыбор 1987_DVDRip-AVC_KORSAR.mkv
Формат : Matroska
Версия формата : Version 2
Размер файла : 1,61 Гбайт
Продолжительность : 1 ч. 13 м.
Общий поток : 3144 Кбит/сек
Название фильма : Выбор 1987 KORSAR
Дата кодирования : UTC 2018-01-20 18:15:39
Программа кодирования : mkvmerge v5.8.0 ('No Sleep / Pillow') built on Sep 2 2012 15:37:04
Библиотека кодирования : libebml v1.2.3 + libmatroska v1.3.0
Видео
Идентификатор : 1
Формат : AVC
Формат/Информация : Advanced Video Codec
Профиль формата : High@L4.1
Настройки формата : CABAC / 15 Ref Frames
Параметр CABAC формата : Да
Параметр RefFrames формата : 15 кадров
Идентификатор кодека : V_MPEG4/ISO/AVC
Продолжительность : 1 ч. 13 м.
Битрейт : 2950 Кбит/сек
Ширина : 692 пикселя
Высота : 574 пикселя
Соотношение сторон : 1,286
Режим частоты кадров : Постоянный
Частота кадров : 25,000 кадров/сек
Цветовое пространство : YUV
Субдискретизация насыщенности : 4:2:0
Битовая глубина : 8 бит
Тип развёртки : Прогрессивная
Бит/(Пиксели*Кадры) : 0.297
Размер потока : 1,48 Гбайт (92%)
Библиотека кодирования : x264 core 152 r2851kMod ba24899
Настройки программы : cabac=1 / ref=15 / deblock=1:-2:-1 / analyse=0x3:0x133 / me=umh / subme=11 / psy=1 / fade_compensate=0.00 / psy_rd=1.05:0.09 / mixed_ref=1 / me_range=48 / chroma_me=1 / trellis=2 / 8x8dct=1 / cqm=0 / deadzone=21,11 / fast_pskip=0 / chroma_qp_offset=-3 / threads=12 / lookahead_threads=3 / sliced_threads=0 / nr=0 / decimate=0 / interlaced=0 / bluray_compat=0 / constrained_intra=0 / bframes=12 / b_pyramid=2 / b_adapt=2 / b_bias=0 / direct=3 / weightb=1 / open_gop=0 / weightp=2 / keyint=250 / keyint_min=25 / scenecut=40 / intra_refresh=0 / rc_lookahead=40 / rc=2pass / mbtree=0 / bitrate=2950 / ratetol=1.0 / qcomp=0.60 / qpmin=0 / qpmax=39 / qpstep=4 / cplxblur=20.0 / qblur=0.5 / vbv_maxrate=50000 / vbv_bufsize=62500 / nal_hrd=none / filler=0 / ip_ratio=1.25 / pb_ratio=1.30 / aq=1:0.90
Язык : English
Default : Да
Forced : Нет
Цветовой диапазон : Limited
Основные цвета : BT.601 PAL
Характеристики трансфера : BT.470 System B, BT.470 System G
Коэффициенты матрицы : BT.470 System B, BT.470 System G
Аудио
Идентификатор : 2
Формат : AC-3
Формат/Информация : Audio Coding 3
Параметр Endianness формата : Big
Идентификатор кодека : A_AC3
Продолжительность : 1 ч. 13 м.
Вид битрейта : Постоянный
Битрейт : 192 Кбит/сек
Каналы : 2 канала
Расположение каналов : Front: L R
Частота : 48,0 КГц
Частота кадров : 31,250 кадров/сек (1536 SPF)
Битовая глубина : 16 бит
Метод сжатия : С потерями
Размер потока : 100 Мбайт (6%)
Default : Да
Forced : Нет

Кодек: х264
Качество: DVDRip-AVC
Видео: MPEG-4 AVC, 694х572@740x572 25 fps, 2350 Кбит/с
Аудио: AC3, 2h, 192 Кбит/с

x264 [info]: frame I:415 Avg QP:13.57 size: 83872
x264 [info]: frame P:19481 Avg QP:17.07 size: 26944
x264 [info]: frame B:71114 Avg QP:19.48 size: 7163
Общее
Уникальный идентификатор : 204841070376359562464713426021326276474 (0x9A1AF48341AEF43E969ED88AE62C477A)
Полное имя : E:Мои рипыВыбор 1987_DVDRip-AVC_KORSARВыбор 2 серия 1987_DVDRip-AVC_KORSAR.mkv
Формат : Matroska
Версия формата : Version 2
Размер файла : 1,08 Гбайт
Продолжительность : 1 ч. 0 м.
Общий поток : 2543 Кбит/сек
Дата кодирования : UTC 2018-01-21 10:51:34
Программа кодирования : mkvmerge v5.8.0 ('No Sleep / Pillow') built on Sep 2 2012 15:37:04
Библиотека кодирования : libebml v1.2.3 + libmatroska v1.3.0
Видео
Идентификатор : 1
Формат : AVC
Формат/Информация : Advanced Video Codec
Профиль формата : High@L4.1
Настройки формата : CABAC / 16 Ref Frames
Параметр CABAC формата : Да
Параметр RefFrames формата : 16 кадров
Идентификатор кодека : V_MPEG4/ISO/AVC
Продолжительность : 1 ч. 0 м.
Битрейт : 2350 Кбит/сек
Ширина : 694 пикселя
Высота : 572 пикселя
Соотношение сторон : 1,294
Режим частоты кадров : Постоянный
Частота кадров : 25,000 кадров/сек
Цветовое пространство : YUV
Субдискретизация насыщенности : 4:2:0
Битовая глубина : 8 бит
Тип развёртки : Прогрессивная
Бит/(Пиксели*Кадры) : 0.237
Размер потока : 998 Мбайт (90%)
Библиотека кодирования : x264 core 152 r2851kMod ba24899
Настройки программы : cabac=1 / ref=16 / deblock=1:-2:-1 / analyse=0x3:0x133 / me=umh / subme=11 / psy=1 / fade_compensate=0.00 / psy_rd=1.05:0.10 / mixed_ref=1 / me_range=48 / chroma_me=1 / trellis=2 / 8x8dct=1 / cqm=0 / deadzone=21,11 / fast_pskip=0 / chroma_qp_offset=-3 / threads=12 / lookahead_threads=3 / sliced_threads=0 / nr=0 / decimate=0 / interlaced=0 / bluray_compat=0 / constrained_intra=0 / bframes=12 / b_pyramid=2 / b_adapt=2 / b_bias=0 / direct=3 / weightb=1 / open_gop=0 / weightp=2 / keyint=250 / keyint_min=25 / scenecut=40 / intra_refresh=0 / rc_lookahead=40 / rc=2pass / mbtree=0 / bitrate=2350 / ratetol=1.0 / qcomp=0.60 / qpmin=0 / qpmax=39 / qpstep=4 / cplxblur=20.0 / qblur=0.5 / vbv_maxrate=50000 / vbv_bufsize=62500 / nal_hrd=none / filler=0 / ip_ratio=1.25 / pb_ratio=1.30 / aq=1:0.90
Язык : English
Default : Да
Forced : Нет
Цветовой диапазон : Limited
Основные цвета : BT.601 PAL
Характеристики трансфера : BT.470 System B, BT.470 System G
Коэффициенты матрицы : BT.470 System B, BT.470 System G
Аудио
Идентификатор : 2
Формат : AC-3
Формат/Информация : Audio Coding 3
Параметр Endianness формата : Big
Идентификатор кодека : A_AC3
Продолжительность : 1 ч. 0 м.
Вид битрейта : Постоянный
Битрейт : 192 Кбит/сек
Каналы : 2 канала
Расположение каналов : Front: L R
Частота : 48,0 КГц
Частота кадров : 31,250 кадров/сек (1536 SPF)
Битовая глубина : 16 бит
Метод сжатия : С потерями
Размер потока : 83,3 Мбайт (8%)
Default : Да
Forced : Нет




   Похожие торренты   Торрент   Размер 
В этой теме нет новых непрочитанных сообщений. Без права на выбор [01-04 из 04] (2013) WEB-DLRip-AVC от KORSAR

17 | 4

4.26 ГБ

В этой теме нет новых непрочитанных сообщений. Друг (1987) DVDRip-AVC от KORSAR

26 | 2

1.53 ГБ

В этой теме нет новых непрочитанных сообщений. Зеркало для героя (1987) DVDRip-AVC от KORSAR

77 | 6

2.39 ГБ

В этой теме нет новых непрочитанных сообщений. Роксана / Roxanne (1987) BDRip 720p от KORSAR | P, P2, A

0 | 4

6.62 ГБ

В этой теме нет новых непрочитанных сообщений. Погоня за Бенджи / Benji the Hunted (1987) WEB-DL 1080p от KORSAR | D, P

7 | 0

9.74 ГБ

В этой теме нет новых непрочитанных сообщений. Погоня за Бенджи / Benji the Hunted (1987) WEB-DLRip 720p от KORSAR | D, P

1 | 0

6.98 ГБ

В этой теме нет новых непрочитанных сообщений. Взять живым или мертвым / Wanted: Dead or Alive (1987) BDRip 720р от KORSAR | P, P2, P1, A

2 | 2

6.47 ГБ




Вы не можете начинать темы
Вы не можете отвечать на сообщения
Вы не можете редактировать свои сообщения
Вы не можете удалять свои сообщения
Вы не можете добавлять вложения

Перейти:  
 Вход
ppkBB3cker v.2 © 2008-2014 @ PPK
[ Time : 0.027s | 17 Queries | GZIP : Off ]

cron