img image001 image001 image001 image001 image001 image001 image001 image001 image001 image001 image001 image001 image001 image001 image001 image001

Planets Sun Sun Sun
Статистика раздачи
Автор: Nickolas3434 | Размер: 743.6 МБ | Добавлен: 28 янв 2018
Раздают: 4    Качают: 0
Скачать торрент
Скачать торрент
Описание торрента

СообщениеДобавлено: 28 янв 2018 


Мы "В КОНТАКТЕ"


Страна: СССР
Производство: Мосфильм
Жанр: комедия, музыка
Год выпуска: 1959
Продолжительность: 01:01:07
Перевод: Не требуется
Cубтитры: нет
Оригинальная аудиодорожка: русский
Режиссер: Михаил Григорьев
В ролях:
Лев Миров, Марк Новицкий, Ия Арепина, Виктор Кольцов (Кутаков), Антонина Максимова, Марк Бернес, Зоя Фёдорова, Сергей Филиппов, Тамара Носова, Михаил Пуговкин, Павел Винник, Валентин Абрамов, Анатолий Федоринов...
Об актёрах подробней
Описание:
Музыкальный фильм о бескомпромиссной борьбе против строительства новой дороги через прекрасный фруктовый сад, расположенный на территории детского сада. По разные стороны баррикад в битве против разгула бюрократизма за права детей оказались герои фильма.





Исходник: DVB
Качество видео: SATRip
Формат видео: AVI
Видео: 688х512 (4:3), 25 fps, XviD ~ 1495 kbps avg, 0.170 bit/pixel
Аудио: 48 kHz, Dolby Digital AC3 2.0, 192 kbps
Раздача от:
Общее
Полное имя : Osobyy.podhod.1959.SATRip_[New-team]_by_AVP_Studio.avi
Формат : AVI
Формат/Информация : Audio Video Interleave
Размер файла : 744 Мбайт
Продолжительность : 1 ч. 1 м.
Общий поток : 1697 Кбит/сек
Программа кодирования : VirtualDubMod 1.5.10.3 | www.virtualdub-fr.org || (build 2550/release)
Библиотека кодирования : VirtualDubMod build 2550/release
Видео
Идентификатор : 0
Формат : MPEG-4 Visual
Профиль формата : Advanced Simple@L5
Настройки формата : BVOP1 / Custom Matrix
Параметр BVOP формата : 1
Параметр QPel формата : Нет
Параметр GMC формата : Без точки перехода
Параметр матрицы формата : Выборочная
Идентификатор кодека : XVID
Идентификатор кодека/Подсказка : XviD
Продолжительность : 1 ч. 1 м.
Битрейт : 1495 Кбит/сек
Ширина : 688 пикселей
Высота : 512 пикселей
Соотношение сторон : 4:3
Частота кадров : 25,000 кадров/сек
Цветовое пространство : YUV
Субдискретизация насыщенности : 4:2:0
Битовая глубина : 8 бит
Тип развёртки : Прогрессивная
Метод сжатия : С потерями
Бит/(Пиксели*Кадры) : 0.170
Размер потока : 656 Мбайт (88%)
Библиотека кодирования : XviD 73
Аудио
Идентификатор : 1
Формат : AC-3
Формат/Информация : Audio Coding 3
Идентификатор кодека : 2000
Продолжительность : 1 ч. 1 м.
Вид битрейта : Постоянный
Битрейт : 192 Кбит/сек
Каналы : 2 канала
Расположение каналов : Front: L R
Частота : 48,0 КГц
Частота кадров : 31,250 кадров/сек (1536 SPF)
Битовая глубина : 16 бит
Метод сжатия : С потерями
Размер потока : 84,2 Мбайт (11%)
Выравнивание : Разделение по промежуткам
Продолжительность промежутка : 40 мс. (1,00 видеокадр)
Время предзагрузки промежутка : 500 мс





   Похожие торренты   Торрент   Размер 
В этой теме нет новых непрочитанных сообщений. Особый подход (1959) SATRip-AVC от New-Team

8 | 0

742.62 МБ

В этой теме нет новых непрочитанных сообщений. Колыбельная (1959) SATRip от New-Team

4 | 0

1.09 ГБ

В этой теме нет новых непрочитанных сообщений. Муму (1959) SATRip-AVC от New-Team

24 | 0

744.35 МБ

В этой теме нет новых непрочитанных сообщений. Аннушка (1959) SATRip-AVC от New-Team

8 | 0

1.09 ГБ

В этой теме нет новых непрочитанных сообщений. Аннушка (1959) SATRip от New-Team

0 | 1

745.25 МБ

В этой теме нет новых непрочитанных сообщений. Сверстницы (1959) SATRip от New-Team

2 | 2

1.09 ГБ

В этой теме нет новых непрочитанных сообщений. Сверстницы (1959) SATRip от New-Team

4 | 0

745.39 МБ




Вы не можете начинать темы
Вы не можете отвечать на сообщения
Вы не можете редактировать свои сообщения
Вы не можете удалять свои сообщения
Вы не можете добавлять вложения

Перейти:  
 Вход
ppkBB3cker v.2 © 2008-2014 @ PPK
[ Time : 0.024s | 20 Queries | GZIP : Off ]

cron