img image001 image001 image001 image001 image001 image001 image001 image001 image001 image001 image001 image001 image001 image001 image001 image001

Planets Sun Sun Sun
Статистика раздачи
Автор: Nickolas3434 | Размер: 743.7 МБ | Добавлен: 28 янв 2018
Раздают: 0    Качают: 0
Скачать торрент
Скачать торрент
Описание торрента

СообщениеДобавлено: 28 янв 2018 


Мы "В КОНТАКТЕ"


Страна: СССР
Производство: Моснаучфильм
Жанр: фантастика
Год выпуска: 1959
Продолжительность: 01:02:23
Перевод: Не требуется
Cубтитры: нет
Оригинальная аудиодорожка: русский
Режиссер: Виктор Моргенштерн
В ролях:
Павел Махотин, Владимир Емельянов, Георгий Шамшурин, Анатолий Шамшурин...
Об актёрах подробней
Описание:
Рассказ ведется от имени молодого ученого, который пишет дневник. Ключевым эпизодом воспоминаний Андрея становится сюжет об ученом Игоре Петровиче (Владимир Емельянов), первом разведчике трассы к Солнцу и ближайшем друге отца, конструктора космических кораблей. Попав в полосу непроходимых зон, космический корабль тогда потерял связь с Землей и не вернулся. Спустя двадцать лет Андрей, в лаборатории которого успешно завершились испытания защитных материалов, решает повторить подвиг своего учителя.





Исходник: S-VHS
Качество видео: VHSRip
Формат видео: AVI
Видео: 688х512 (4:3), 25 fps, XviD ~ 1465 kbps avg, 0.166 bit/pixel
Аудио: 48 kHz, Dolby Digital AC3 2.0, 192 kbps
Раздача от:
Общее
Полное имя : Ya.byl.sputnikom.solnca.1959.VHSRip_[New-team]_by_AVP_Studio.avi
Формат : AVI
Формат/Информация : Audio Video Interleave
Размер файла : 744 Мбайт
Продолжительность : 1 ч. 2 м.
Общий поток : 1667 Кбит/сек
Программа кодирования : VirtualDubMod 1.5.10.3 | www.virtualdub-fr.org || (build 2550/release)
Библиотека кодирования : VirtualDubMod build 2550/release
Видео
Идентификатор : 0
Формат : MPEG-4 Visual
Профиль формата : Advanced Simple@L5
Настройки формата : BVOP1 / Custom Matrix
Параметр BVOP формата : 1
Параметр QPel формата : Нет
Параметр GMC формата : Без точки перехода
Параметр матрицы формата : Выборочная
Идентификатор кодека : XVID
Идентификатор кодека/Подсказка : XviD
Продолжительность : 1 ч. 2 м.
Битрейт : 1465 Кбит/сек
Ширина : 688 пикселей
Высота : 512 пикселей
Соотношение сторон : 4:3
Частота кадров : 25,000 кадров/сек
Цветовое пространство : YUV
Субдискретизация насыщенности : 4:2:0
Битовая глубина : 8 бит
Тип развёртки : Прогрессивная
Метод сжатия : С потерями
Бит/(Пиксели*Кадры) : 0.166
Размер потока : 654 Мбайт (88%)
Библиотека кодирования : XviD 73
Аудио
Идентификатор : 1
Формат : AC-3
Формат/Информация : Audio Coding 3
Идентификатор кодека : 2000
Продолжительность : 1 ч. 2 м.
Вид битрейта : Постоянный
Битрейт : 192 Кбит/сек
Каналы : 2 канала
Расположение каналов : Front: L R
Частота : 48,0 КГц
Частота кадров : 31,250 кадров/сек (1536 SPF)
Битовая глубина : 16 бит
Метод сжатия : С потерями
Размер потока : 85,7 Мбайт (12%)
Выравнивание : Разделение по промежуткам
Продолжительность промежутка : 40 мс. (1,00 видеокадр)
Время предзагрузки промежутка : 500 мс





   Похожие торренты   Торрент   Размер 
В этой теме нет новых непрочитанных сообщений. Я был спутником Солнца (1959) VHSRip-AVC от New-Team

6 | 0

744.7 МБ

В этой теме нет новых непрочитанных сообщений. Солдатка (1959) VHSRip от New-Team

2 | 0

1.09 ГБ

В этой теме нет новых непрочитанных сообщений. Солдатка (1959) VHSRip-AVC от New-Team

5 | 0

1.09 ГБ

В этой теме нет новых непрочитанных сообщений. Заре навстречу (1959) VHSRip-AVC от New-Team

0 | 0

1.09 ГБ

В этой теме нет новых непрочитанных сообщений. Незваные гости (1959) VHSRip-AVC от New-Team

4 | 0

1.09 ГБ

В этой теме нет новых непрочитанных сообщений. Заре навстречу (1959) VHSRip от New-Team

0 | 0

747.92 МБ

В этой теме нет новых непрочитанных сообщений. Любой ценой (1959) VHSRip-AVC от New-Team

38 | 3

1.09 ГБ




Вы не можете начинать темы
Вы не можете отвечать на сообщения
Вы не можете редактировать свои сообщения
Вы не можете удалять свои сообщения
Вы не можете добавлять вложения

Перейти:  
 Вход
ppkBB3cker v.2 © 2008-2014 @ PPK
[ Time : 0.034s | 16 Queries | GZIP : Off ]

cron