img image001 image001 image001 image001 image001 image001 image001 image001 image001 image001 image001 image001 image001 image001 image001 image001

Planets Sun Sun Sun
Статистика раздачи
Автор: Nickolas3434 | Размер: 745.65 МБ | Добавлен: 28 янв 2018
Раздают: 6    Качают: 0
Скачать торрент
Скачать торрент
Описание торрента

СообщениеДобавлено: 28 янв 2018 


Мы "В КОНТАКТЕ"


Страна: СССР
Производство: Беларусьфильм
Жанр: мелодрама
Год выпуска: 1959
Продолжительность: 01:22:15
Перевод: Не требуется
Cубтитры: нет
Оригинальная аудиодорожка: русский
Режиссер: Сергей Сплошнов
В ролях:
Нина Иванова, Эдуард Бредун, Зинаида Асмолова, Муза Крепкогорская, Инга Будкевич, Анатолий Адоскин, Татьяна Алексеева, Константин Сорокин, Фёдор Шмаков, Павел Молчанов, Валентина Кравченко, Евгений Полосин, Борис Щербаков, Юрий Галкин...
Об актёрах подробней
Описание:
В одной из комнат общежития камвольного комбината живут четыре девушки-ткачихи: Катя, Тамара, Полина и Зина. Обстоятельства сложились так, что Катю (Нина Иванова) обвинили в нечестном поступке. Все улики против неё. Кате приходится пережить разрыв с любимым человеком, который ей не поверил. Она покидает комбинат и уезжает на далёкую стройку.





Источник: DVD5 R5
Качество видео: DVDRip
Формат видео: AVI
Видео: 640x480 (4:3), 25 fps, XviD ~ 1130 kbps avg, 0.147 bit/pixel
Аудио: 48 kHz, MP3 2.0, 128 kbps
Раздача от:
Общее
Полное имя : Lyubovyu.nado.dorozhit.1959.DVDRip-745_[New-team]_by_AVP_Studio.avi
Формат : AVI
Формат/Информация : Audio Video Interleave
Размер файла : 746 Мбайт
Продолжительность : 1 ч. 22 м.
Общий поток : 1268 Кбит/сек
Программа кодирования : VirtualDubMod 1.5.10.3 | www.virtualdub-fr.org || (build 2550/release)
Библиотека кодирования : VirtualDubMod build 2550/release
Видео
Идентификатор : 0
Формат : MPEG-4 Visual
Профиль формата : Advanced Simple@L5
Настройки формата : BVOP1 / Custom Matrix
Параметр BVOP формата : 1
Параметр QPel формата : Нет
Параметр GMC формата : Без точки перехода
Параметр матрицы формата : Выборочная
Идентификатор кодека : XVID
Идентификатор кодека/Подсказка : XviD
Продолжительность : 1 ч. 22 м.
Битрейт : 1130 Кбит/сек
Ширина : 640 пикселей
Высота : 480 пикселей
Соотношение сторон : 4:3
Частота кадров : 25,000 кадров/сек
Цветовое пространство : YUV
Субдискретизация насыщенности : 4:2:0
Битовая глубина : 8 бит
Тип развёртки : Прогрессивная
Метод сжатия : С потерями
Бит/(Пиксели*Кадры) : 0.147
Размер потока : 665 Мбайт (89%)
Библиотека кодирования : XviD 73
Аудио
Идентификатор : 1
Формат : MPEG Audio
Версия формата : Version 1
Профиль формата : Layer 3
Идентификатор кодека : 55
Идентификатор кодека/Подсказка : MP3
Продолжительность : 1 ч. 22 м.
Вид битрейта : Постоянный
Битрейт : 128 Кбит/сек
Каналы : 2 канала
Частота : 48,0 КГц
Частота кадров : 41,667 кадра/сек (1152 SPF)
Метод сжатия : С потерями
Размер потока : 75,3 Мбайт (10%)
Выравнивание : Соединение по промежуткам
Продолжительность промежутка : 40 мс. (1,00 видеокадр)
Время предзагрузки промежутка : 504 мс.
Библиотека кодирования : LAME3.99r
Настройки программы : -m s -V 4 -q 2 -lowpass 17 -b 128





   Похожие торренты   Торрент   Размер 
В этой теме нет новых непрочитанных сообщений. Любовью надо дорожить (1959) DVDRip-AVC от New-Team

8 | 0

1.09 ГБ

В этой теме нет новых непрочитанных сообщений. Любовью надо дорожить (1959) DVDRip от New-Team

2 | 0

1.09 ГБ

В этой теме нет новых непрочитанных сообщений. Счастье надо беречь DVDRip от New-Team

4 | 0

745.34 МБ

В этой теме нет новых непрочитанных сообщений. Счастье надо беречь DVDRip от New-Team

5 | 0

1.09 ГБ

В этой теме нет новых непрочитанных сообщений. Счастье надо беречь DVDRip-AVC от New-Team

6 | 0

1.09 ГБ

В этой теме нет новых непрочитанных сообщений. Сомбреро (1959) DVDRip от New-Team

10 | 0

1.09 ГБ

В этой теме нет новых непрочитанных сообщений. Шинель (1959) DVDRip от New-Team

5 | 1

745.39 МБ




Вы не можете начинать темы
Вы не можете отвечать на сообщения
Вы не можете редактировать свои сообщения
Вы не можете удалять свои сообщения
Вы не можете добавлять вложения

Перейти:  
 Вход
ppkBB3cker v.2 © 2008-2014 @ PPK
[ Time : 0.024s | 18 Queries | GZIP : Off ]

cron