img image001 image001 image001 image001 image001 image001 image001 image001 image001 image001 image001 image001 image001 image001 image001 image001

Planets Sun Sun Sun
Статистика раздачи
Автор: Nickolas3434 | Размер: 1.09 ГБ | Добавлен: 04 фев 2018
Раздают: 10    Качают: 0
Скачать торрент
Скачать торрент
Описание торрента

СообщениеДобавлено: 04 фев 2018 


Мы "В КОНТАКТЕ"


Страна: СССР
Производство: Московская студия научно-популярных фильмов
Жанр: приключения
Год выпуска: 1959
Продолжительность: 01:17:49
Перевод: Не требуется
Cубтитры: нет
Оригинальная аудиодорожка: русский
Режиссер: Глеб Нифонтов
В ролях:
Иван Савкин, Раднэр Муратов, Кемель Албанов, Борис Ситко, Иван Коваль-Самборский, Владимир Борискин, Григорий Михайлов, Константин Немоляев, Пётр Любешкин, Даниил Нетребин, Шамши Тюменбаев, Евгений Дубасов...
Об актёрах подробней
Описание:
Молодой охотовед Егоров мечтает стать тигроловом. На первых порах он терпит неудачи, делает ошибки. В самых отдалённых уголках нашей страны сталкивается он с дикой природой уссурийской тайги, просторов Казахстана, гор Тянь-Шаня. Вместе с опытными охотниками он участвует в отлове пеликанов, дикобразов и других зверей и птиц. В конце концов молодой специалист становится опытным звероловом. И наконец, ему удаётся осуществить свою мечту - собственноручно поймать амурского тигра.





Источник: DVD5 R5
Качество видео: DVDRip
Формат видео: AVI
Видео: 704x528 (4:3), 25 fps, XviD ~ 1804 kbps avg, 0.194 bit/pixel
Аудио: 48 kHz, Dolby Digital AC3 2.0, 192 kbps
Раздача от:
Общее
Полное имя : Zverolovy.1959.DVDRip_[New-team]_by_AVP_Studio.avi
Формат : AVI
Формат/Информация : Audio Video Interleave
Размер файла : 1,09 Гбайт
Продолжительность : 1 ч. 17 м.
Общий поток : 2005 Кбит/сек
Программа кодирования : VirtualDubMod 1.5.10.3 | www.virtualdub-fr.org || (build 2550/release)
Библиотека кодирования : VirtualDubMod build 2550/release
Видео
Идентификатор : 0
Формат : MPEG-4 Visual
Профиль формата : Advanced Simple@L5
Настройки формата : BVOP1 / Custom Matrix
Параметр BVOP формата : 1
Параметр QPel формата : Нет
Параметр GMC формата : Без точки перехода
Параметр матрицы формата : Выборочная
Идентификатор кодека : XVID
Идентификатор кодека/Подсказка : XviD
Продолжительность : 1 ч. 17 м.
Битрейт : 1804 Кбит/сек
Ширина : 704 пикселя
Высота : 528 пикселей
Соотношение сторон : 4:3
Частота кадров : 25,000 кадров/сек
Цветовое пространство : YUV
Субдискретизация насыщенности : 4:2:0
Битовая глубина : 8 бит
Тип развёртки : Прогрессивная
Метод сжатия : С потерями
Бит/(Пиксели*Кадры) : 0.194
Размер потока : 1004 Мбайт (90%)
Библиотека кодирования : XviD 73
Аудио
Идентификатор : 1
Формат : AC-3
Формат/Информация : Audio Coding 3
Идентификатор кодека : 2000
Продолжительность : 1 ч. 17 м.
Вид битрейта : Постоянный
Битрейт : 192 Кбит/сек
Каналы : 2 канала
Расположение каналов : Front: L R
Частота : 48,0 КГц
Частота кадров : 31,250 кадров/сек (1536 SPF)
Битовая глубина : 16 бит
Метод сжатия : С потерями
Размер потока : 107 Мбайт (10%)
Выравнивание : Разделение по промежуткам
Продолжительность промежутка : 40 мс. (1,00 видеокадр)
Время предзагрузки промежутка : 500 мс





   Похожие торренты   Торрент   Размер 
В этой теме нет новых непрочитанных сообщений. Звероловы (1959) DVDRip-AVC от New-Team

6 | 2

1.09 ГБ

В этой теме нет новых непрочитанных сообщений. Шинель (1959) DVDRip от New-Team

5 | 1

745.39 МБ

В этой теме нет новых непрочитанных сообщений. Черноморочка (1959) DVDRip-AVC от New-Team

6 | 0

1.09 ГБ

В этой теме нет новых непрочитанных сообщений. Шинель (1959) DVDRip от New-Team

29 | 0

1.09 ГБ

В этой теме нет новых непрочитанных сообщений. Жеребенок (1959) DVDRip от New-Team

7 | 1

742.87 МБ

В этой теме нет новых непрочитанных сообщений. Накануне (1959) DVDRip от New-Team

4 | 0

1.09 ГБ

В этой теме нет новых непрочитанных сообщений. Жеребенок (1959) DVDRip-AVC от New-Team

7 | 2

745.16 МБ




Вы не можете начинать темы
Вы не можете отвечать на сообщения
Вы не можете редактировать свои сообщения
Вы не можете удалять свои сообщения
Вы не можете добавлять вложения

Перейти:  
 Вход
ppkBB3cker v.2 © 2008-2014 @ PPK
[ Time : 0.032s | 16 Queries | GZIP : Off ]

cron