img image001 image001 image001 image001 image001 image001 image001 image001 image001 image001 image001 image001 image001 image001 image001 image001

Planets Sun Sun Sun
Статистика раздачи
Автор: Nickolas3434 | Размер: 4.63 ГБ | Добавлен: 04 фев 2018
Раздают: 211    Качают: 16
Скачать торрент
Скачать торрент
Описание торрента

СообщениеДобавлено: 04 фев 2018 

Информация о фильме
Название: Матильда
Год выпуска: 2017
Жанр: Драма, история, триллер
Режиссер: Алексей Учитель
В ролях: Михалина Ольшанска, Ларс Айдингер, Данила Козловский, Луизе Вольфрам, Ингеборга Дапкунайте, Сергей Гармаш, Евгений Миронов, Григорий Добрыгин, Галина Тюнина, Виталий Коваленко, Виталий Кищенко, Томас Остермайер, Сара Штерн, Гэ Ян, Сергей Малюгов, Степан Пивкин, Константин Желдин, Роман Шаляпин
Описание: Последний русский император и балерина, утвердившая славу русского балета. Страсть, которая могла изменить русскую историю. Любовь, ставшая легендой. В жизни каждого человека случаются несколько дней, которые могут изменить её навсегда. Когда происходит самое главное. Ты оборачиваешься на голос любви. И делаешь выбор. Но если властитель империи полюбит танцовщицу, сводящую с ума своей красотой… Успенский собор, Кремль, Ходынское поле, царские дворцы, сцены Мариинского и Большого театров — там, где бьется сердце вечной России.

Страна: Россия
Студия: ТПО «РОК»
Продолжительность: 01:48:38
Язык: Русский | Лицензия
Файл
Формат: MKV
Качество: BDRip 720p
Видео: MPEG-4 AVC, 1280x536 (16:9), 24.000 fps, ~3950 kbps avg, 0.240 bit/pixel
Аудио 1: 48 kHz, AC3, 5.1, 640 Kbps | RUS |
Аудио 2: 48 kHz, DTS, 5.1, 1509 Kbps | RUS |
Сохранены оригинальные чаптеры как на Blu-Ray.
General
Unique ID : 215459729575355110092185075136989918979 (0xA21808D4FBDBEEF09B3C6032B0BA7703)
Complete name : D:Mat1lda.2017.BDRip.720p.ExKinoRay.mkv
Format : Matroska
Format version : Version 2
File size : 4.63 GiB
Duration : 1 h 48 min
Overall bit rate : 6 101 kb/s
Movie name : Matilda (2017) from ExKinoRay
Encoded date : UTC 2018-02-03 01:22:33
Writing application : mkvmerge v5.6.0 ('Kenya Kane') built on May 27 2012 16:44:04
Writing library : libebml v1.2.3 + libmatroska v1.3.0
Video
ID : 1
Format : AVC
Format/Info : Advanced Video Codec
Format profile : High@L4.1
Format settings, CABAC : Yes
Format settings, ReFrames : 12 frames
Codec ID : V_MPEG4/ISO/AVC
Duration : 1 h 48 min
Bit rate : 3 950 kb/s
Width : 1 280 pixels
Height : 536 pixels
Display aspect ratio : 2.40:1
Frame rate mode : Constant
Frame rate : 24.000 FPS
Color space : YUV
Chroma subsampling : 4:2:0
Bit depth : 8 bits
Scan type : Progressive
Bits/(Pixel*Frame) : 0.240
Stream size : 2.91 GiB (63%)
Title : Enigma
Writing library : x264 core 148 r2638 7599210
Encoding settings : cabac=1 / ref=12 / deblock=1:-1:-2 / analyse=0x3:0x113 / me=umh / subme=11 / psy=1 / psy_rd=1.05:0.10 / mixed_ref=1 / me_range=32 / chroma_me=1 / trellis=2 / 8x8dct=1 / cqm=0 / deadzone=21,11 / fast_pskip=0 / chroma_qp_offset=-3 / threads=12 / lookahead_threads=3 / sliced_threads=0 / nr=0 / decimate=1 / interlaced=0 / bluray_compat=0 / constrained_intra=0 / bframes=12 / b_pyramid=2 / b_adapt=2 / b_bias=0 / direct=3 / weightb=1 / open_gop=0 / weightp=2 / keyint=240 / keyint_min=24 / scenecut=40 / intra_refresh=0 / rc_lookahead=40 / rc=2pass / mbtree=0 / bitrate=3950 / ratetol=1.0 / qcomp=0.70 / qpmin=0 / qpmax=51 / qpstep=4 / cplxblur=20.0 / qblur=0.5 / vbv_maxrate=50000 / vbv_bufsize=62500 / nal_hrd=none / filler=0 / ip_ratio=1.40 / pb_ratio=1.30 / aq=1:0.80
Default : Yes
Forced : No
Color range : Limited
Color primaries : BT.709
Transfer characteristics : BT.709
Matrix coefficients : BT.709
Audio #1
ID : 2
Format : AC-3
Format/Info : Audio Coding 3
Mode extension : CM (complete main)
Format settings, Endianness : Big
Codec ID : A_AC3
Duration : 1 h 48 min
Bit rate mode : Constant
Bit rate : 640 kb/s
Channel(s) : 6 channels
Channel positions : Front: L C R, Side: L R, LFE
Sampling rate : 48.0 kHz
Frame rate : 31.250 FPS (1536 spf)
Compression mode : Lossy
Stream size : 497 MiB (10%)
Title : AC3, 640, License
Language : Russian
Default : Yes
Forced : No
Audio #2
ID : 3
Format : DTS
Format/Info : Digital Theater Systems
Mode : 16
Format settings, Endianness : Big
Codec ID : A_DTS
Duration : 1 h 48 min
Bit rate mode : Constant
Bit rate : 1 509 kb/s
Channel(s) : 6 channels
Channel positions : Front: L C R, Side: L R, LFE
Sampling rate : 48.0 kHz
Frame rate : 93.750 FPS (512 spf)
Bit depth : 24 bits
Compression mode : Lossy
Stream size : 1.15 GiB (25%)
Title : DTS, 1509, License
Language : Russian
Default : No
Forced : No
Menu
00:00:00.000 : :Chapter 01
00:00:56.500 : :Chapter 02
00:11:23.291 : :Chapter 03
00:24:02.833 : :Chapter 04
00:39:26.000 : :Chapter 05
00:50:44.166 : :Chapter 06
01:03:31.500 : :Chapter 07
01:17:48.208 : :Chapter 08
01:31:13.875 : :Chapter 09


Релиз от:
Автор релиза:



   Похожие торренты   Торрент   Размер 
В этой теме нет новых непрочитанных сообщений. Матильда (2017) BDRip от ExKinoRay | Лицензия

338 | 6

1.46 ГБ

В этой теме нет новых непрочитанных сообщений. Матильда (2017) BDRip-AVC от OlLanDGroup | Лицензия

51 | 2

742 МБ

В этой теме нет новых непрочитанных сообщений. Матильда (2017) BDRip 720p

0 | 0

4.28 ГБ

В этой теме нет новых непрочитанных сообщений. Матильда (2017) WEB-DLRip-AVC от ExKinoRay | iTunes

786 | 12

1.6 ГБ

В этой теме нет новых непрочитанных сообщений. Матильда (2017) Blu-ray 1080p | Лицензия

0 | 0

27.56 ГБ

В этой теме нет новых непрочитанных сообщений. Матильда (2017) HDRip от Portablius | Лицензия

88 | 2

697.12 МБ

В этой теме нет новых непрочитанных сообщений. Матильда (2017) HDRip от MegaPeer | Лицензия

15 | 1

747.68 МБ




Вы не можете начинать темы
Вы не можете отвечать на сообщения
Вы не можете редактировать свои сообщения
Вы не можете удалять свои сообщения
Вы не можете добавлять вложения

Перейти:  
 Вход
ppkBB3cker v.2 © 2008-2014 @ PPK
[ Time : 0.039s | 20 Queries | GZIP : Off ]

cron