img image001 image001 image001 image001 image001 image001 image001 image001 image001 image001 image001 image001 image001 image001 image001 image001

Planets Sun Sun Sun
Статистика раздачи
Автор: Снежана | Размер: 742.55 МБ | Добавлен: 08 фев 2018
Раздают: 43    Качают: 19
Скачать торрент
Скачать торрент
Описание торрента

СообщениеДобавлено: 08 фев 2018 

Информация о фильме
Название: Деревня Хлюпово выходит из Союза
Год выхода: 1992
Жанр: Комедия
Режиссёр: Анатолий Вехотко
В ролях: Георгий Штиль, Сергей Исавнин, Анатолий Столбов, Любовь Тищенко, Михаил Солодовник, Игорь Ефимов, Нора Грякалова, Галина Сабурова, Екатерина Черняева, Александр Суснин, Борис Аракелов, Гелена Ивлиева, Николай Кузьмин, С(ергей?) Соколов, Ю. Поволяев(Вам знаком? Мне нет.) М.Семёнов (вообще в траурной рамке! Кто такой?)
О фильме: Устав от постоянных ревизоров и наезжающих начальников, жители маленькой деревни Хлюпово решили отделиться от страны. Действие картины происходит во время августовского путча 1991 года, а некоторые персонажи сыграны двойниками известных политических деятелей...

Страна: Россия
Студия: Ленфильм, Baltfilm
Продолжительность: 01:15:40
Перевод: Не требуется (оригинальный)
Файл
Формат: avi
Качество: TVRip
Видео: XviD, 640х480, 25fps, 1234kbps
Аудио: MPEG Layer 3, 2ch, 44100Hz, 128kbps

Общее
Полное имя : Derevna.Hlupovo.Vyhodit.Iz.Souza.1992.O.TVRip.700.CurHaJI.avi
Формат : AVI
Формат/Информация : Audio Video Interleave
Размер файла : 743 Мбайт
Продолжительность : 1 ч. 15 м.
Режим общего битрейта : Переменный
Общий поток : 1372 Кбит/сек
Название фильма : Derevna.Hlupovo.Vyhodit.Iz.Souza.1992.O.TVRip.700.CurHaJI
Библиотека кодирования : VirtualDub build 35491/release
Видео
Идентификатор : 0
Формат : MPEG-4 Visual
Профиль формата : Advanced Simple@L5
Параметр BVOP формата : 1
Параметр QPel формата : Нет
Параметр GMC формата : Без точки перехода
Параметр матрицы формата : Выборочная
Идентификатор кодека : XVID
Идентификатор кодека/Подсказка : XviD
Продолжительность : 1 ч. 15 м.
Битрейт : 1234 Кбит/сек
Ширина : 640 пикселей
Высота : 480 пикселей
Соотношение сторон : 4:3
Частота кадров : 25,000 кадров/сек
Цветовое пространство : YUV
Субдискретизация насыщенности : 4:2:0
Битовая глубина : 8 бит
Тип развёртки : Прогрессивная
Метод сжатия : С потерями
Бит/(Пиксели*Кадры) : 0.161
Размер потока : 668 Мбайт (90%)
Библиотека кодирования : XviD 73
Аудио
Идентификатор : 1
Формат : MPEG Audio
Версия формата : Version 1
Профиль формата : Layer 3
Режим : Joint stereo
Расширение режима : MS Stereo
Идентификатор кодека : 55
Идентификатор кодека/Подсказка : MP3
Продолжительность : 1 ч. 15 м.
Вид битрейта : Переменный
Битрейт : 128 Кбит/сек
Каналы : 2 канала
Частота : 44,1 КГц
Метод сжатия : С потерями
Размер потока : 69,3 Мбайт (9%)
Выравнивание : Разделение по промежуткам
Продолжительность промежутка : 40 мс. (1,00 видеокадр)
Время предзагрузки промежутка : 500 мс.


Релиз от:



   Похожие торренты   Торрент   Размер 
В этой теме нет новых непрочитанных сообщений. Гимн Союза Советских Социалистических Республик (CCCР) TVRip | Раритет!

26 | 10

30.54 МБ

В этой теме нет новых непрочитанных сообщений. Деревня Дураков [S01-06] (1996-2001) TVRip

50 | 22

12.16 ГБ

В этой теме нет новых непрочитанных сообщений. Деревня Дураков (Каламбур) [36 серий] (1996-2002) TVRip by Axwel

182 | 39

1.65 ГБ

В этой теме нет новых непрочитанных сообщений. Формула 1. Сезон 1992. Все этапы (1992) TVRip

2 | 4

22.1 ГБ

В этой теме нет новых непрочитанных сообщений. КВН-1992: КВН-круиз (1992) TVRip

1 | 7

215.79 МБ

В этой теме нет новых непрочитанных сообщений. Прорыв (1992) TVRip

143 | 6

701.7 МБ

В этой теме нет новых непрочитанных сообщений. Рэкет [01-05 из 05] (1992) TVRip

95 | 6

3.4 ГБ




Вы не можете начинать темы
Вы не можете отвечать на сообщения
Вы не можете редактировать свои сообщения
Вы не можете удалять свои сообщения
Вы не можете добавлять вложения

Перейти:  
 Вход
ppkBB3cker v.2 © 2008-2014 @ PPK
[ Time : 0.043s | 16 Queries | GZIP : Off ]

cron