img image001 image001 image001 image001 image001 image001 image001 image001 image001 image001 image001 image001 image001 image001 image001 image001

Planets Sun Sun Sun
Статистика раздачи
Автор: Снежана | Размер: 1.08 ГБ | Добавлен: 26 июн 2018
Раздают: 22    Качают: 1
Скачать торрент
Скачать торрент
Описание торрента

СообщениеДобавлено: 26 июн 2018 

Информация о фильме
Название: Мы смерти смотрели в лицо
Год выпуска: 1980
Жанр: Военный, драма
Режиссёр: Наум Бирман
В ролях: Олег Даль, Любовь Малиновская, Лариса Толкачева, Юрий Жуков, Борис Бирман, Ольга Кузнецова, Юлия Слезкинская, Александр Довгалев, Александр Зенкевич, Игорь Кустов, Юрий Фёдоров, Владимир Заманский, Валентин Никулин, Анатолий Рудаков
О фильме: В основе сюжета — подлинные факты. В марте 1942 бывший балетмейстер, а теперь — лейтенант Обрант (по фильму — Корбут) получил задание политотдела создать танцевальную группу. В блокадном Ленинграде он разыскал бывших своих учеников и привез на Ленинградский фронт, а через несколько дней юные танцоры дали свой первый концерт перед бойцами, вернувшимися с передовой.

Выпущено: СССР, Ленфильм
Продолжительность: 01:10:17
Перевод: Не требуется
Файл
Кодек: x264
Качество: DVDRip-AVC
Видео: MPEG-4 AVC, 702х576@748x576, 25.000 fps, 2000 Кбит/с
Аудио: АС3, 2h, 192 Кбит/с
Субтитры: Нет
Релиз от:

x264 [info]: frame I:594 Avg QP:15.39 size: 72647
x264 [info]: frame P:22362 Avg QP:18.94 size: 28205
x264 [info]: frame B:82469 Avg QP:21.41 size: 4614
x264 [info]: consecutive B-frames: 1.3% 2.5% 11.2% 11.6% 18.4% 47.3% 5.7% 0.9% 0.6% 0.5%
================================================================
Format : Matroska
Format version : Version 2
File size : 1.08 GiB
Duration : 1 h 10 min
Overall bit rate : 2 194 kb/s
Movie name : Мы смерти смотрели в лицо_1980-DVDRip-AVC_KORSAR
Encoded date : UTC 2018-05-07 14:35:49
Writing application : mkvmerge v5.8.0 ('No Sleep / Pillow') built on Sep 2 2012 15:37:04
Writing library : libebml v1.2.3 + libmatroska v1.3.0
Video
ID : 1
Format : AVC
Format/Info : Advanced Video Codec
Format profile : High@L4.1
Format settings, CABAC : Yes
Format settings, ReFrames : 12 frames
Codec ID : V_MPEG4/ISO/AVC
Duration : 1 h 10 min
Bit rate : 2 000 kb/s
Width : 702 pixels
Height : 576 pixels
Display aspect ratio : 1.299
Original display aspect rat : 4:3
Frame rate mode : Constant
Frame rate : 25.000 FPS
Color space : YUV
Chroma subsampling : 4:2:0
Bit depth : 8 bits
Scan type : Progressive
Bits/(Pixel*Frame) : 0.198
Stream size : 984 MiB (89%)
Writing library : x264 core 146 r2538 121396c
Encoding settings : cabac=1 / ref=12 / deblock=1:-2:-1 / analyse=0x3:0x133 / me=umh / subme=10 / psy=1 / psy_rd=1.05:0.10 / mixed_ref=1 / me_range=32 / chroma_me=1 / trellis=2 / 8x8dct=1 / cqm=0 / deadzone=21,11 / fast_pskip=0 / chroma_qp_offset=-3 / threads=3 / lookahead_threads=1 / sliced_threads=0 / nr=0 / decimate=0 / interlaced=0 / bluray_compat=0 / constrained_intra=0 / bframes=9 / b_pyramid=2 / b_adapt=2 / b_bias=0 / direct=3 / weightb=1 / open_gop=0 / weightp=2 / keyint=250 / keyint_min=25 / scenecut=40 / intra_refresh=0 / rc_lookahead=40 / rc=2pass / mbtree=1 / bitrate=2000 / ratetol=1.0 / qcomp=0.60 / qpmin=0 / qpmax=39 / qpstep=4 / cplxblur=20.0 / qblur=0.5 / ip_ratio=1.40 / aq=1:1.00
Language : English
Default : Yes
Forced : No
Color range : Limited
Color primaries : BT.601 PAL
Transfer characteristics : BT.470 System B, BT.470 System G
Matrix coefficients : BT.601
Audio
ID : 2
Format : AC-3
Format/Info : Audio Coding 3
Mode extension : CM (complete main)
Format settings, Endianness : Big
Codec ID : A_AC3
Duration : 1 h 10 min
Bit rate mode : Constant
Bit rate : 192 kb/s
Channel(s) : 2 channels
Channel positions : Front: L R
Sampling rate : 48.0 kHz
Frame rate : 31.250 FPS (1536 spf)
Bit depth : 16 bits
Compression mode : Lossy
Stream size : 96.5 MiB (9%)
Language : Russian
Default : Yes
Forced : No



   Похожие торренты   Торрент   Размер 
В этой теме нет новых непрочитанных сообщений. Мы смерти смотрели в лицо (1980) DVDRip от Кинорадиомагия

154 | 19

1.36 ГБ

В этой теме нет новых непрочитанных сообщений. Назначение (1980) DVDRip-AVC от KORSAR

26 | 1

2.1 ГБ

В этой теме нет новых непрочитанных сообщений. Лицо на мишени (1978) SATRip-AVC от KORSAR

12 | 2

2.32 ГБ

В этой теме нет новых непрочитанных сообщений. Петля Ориона (1980) DVDRip-AVC от KORSAR

15 | 0

1.49 ГБ

В этой теме нет новых непрочитанных сообщений. Чёрная курица, или подземные жители (1980) DVDRip-AVC от KORSAR

19 | 4

1.19 ГБ

В этой теме нет новых непрочитанных сообщений. Ты – лицо корабля (1980) VHSRip | L1

214 | 38

1.48 ГБ

В этой теме нет новых непрочитанных сообщений. Архив смерти / Archiv des Todes [01-13 из 13] (1980) DVDRip | P

20 | 20

9.47 ГБ




Вы не можете начинать темы
Вы не можете отвечать на сообщения
Вы не можете редактировать свои сообщения
Вы не можете удалять свои сообщения
Вы не можете добавлять вложения

Перейти:  
 Вход
ppkBB3cker v.2 © 2008-2014 @ PPK
[ Time : 0.022s | 15 Queries | GZIP : Off ]

cron