img image001 image001 image001 image001 image001 image001 image001 image001 image001 image001 image001 image001 image001 image001 image001 image001

Planets Sun Sun Sun
Статистика раздачи
Автор: Снежана | Размер: 2.39 ГБ | Добавлен: 26 июн 2018
Раздают: 77    Качают: 6
Скачать торрент
Скачать торрент
Описание торрента

СообщениеДобавлено: 26 июн 2018 

Информация о фильме
Название: Зеркало для героя
Год выпуска: 1987
Жанр: Фантастика, драма
Режиссёр: Владимир Хотиненко
В ролях: Сергей Колтаков, Иван Бортник, Борис Галкин, Наталья Акимова, Феликс Степун, Елена Гольянова, Яков Степанов, Виктор Смирнов, Николай Стоцкий, Сергей Паршин
Описание: Двое случайных знакомых, Сергей Пшеничный и Андрей Немчинов, волею загадочных обстоятельств переносятся почти на 40 лет назад. Этот день — 8 мая 1949 года — начинает повторяться для них с неумолимым постоянством. Каждому из героев судьба дает свой шанс: Андрей может предотвратить гибель людей в обветшавшей шахте, Сергей — по-новому взглянуть на своих родителей и понять их. Фильм очень ярко отражает русскую душу и характер. Особенно запоминается сцена воскресника. Люди сажают растения, копают твердую землю — в общем, работают в поте лица после тяжелого рабочего дня. Им за это не платят, они работают за идею, с целью улучшить жизнь. Также запомнился в фильме День повышенной добычи — люди работают в свой единственный выходной лишь для того, что стране нужен уголь.

Выпущено: СССР
Продолжительность: 02:11:16
Перевод: Не требуется
Файл
Кодек: х264
Качество: DVDRip-AVC
Видео: MPEG-4 AVC, 700x508@746x508, 25.000 fps, 2378 Кбит/с
Аудио: AC3, 2 ch, 224 Кбит/с
Субтитры: Нет
Релиз от:

x264 [info]: frame I:1071 Avg QP:16.35 size: 74293
x264 [info]: frame P:45742 Avg QP:18.67 size: 32776
x264 [info]: frame B:150101 Avg QP:20.74 size: 5080
=====================================
Общее
Уникальный идентификатор : 191945336777663679849868716989097537658 (0x906753C1F95D08AF914713B57585707A)
Полное имя : Зеркало для героя_1987-DVDRip-AVC.KORSAR.mkv
Формат : Matroska
Версия формата : Version 2
Размер файла : 2,39 Гбайт
Продолжительность : 2 ч. 11 м.
Общий поток : 2604 Кбит/сек
Дата кодирования : UTC 2017-04-06 12:11:26
Программа кодирования : mkvmerge v5.8.0 ('No Sleep / Pillow') built on Sep 2 2012 15:37:04
Библиотека кодирования : libebml v1.2.3 + libmatroska v1.3.0
Видео
Идентификатор : 1
Формат : AVC
Формат/Информация : Advanced Video Codec
Профиль формата : High@L4.1
Параметр CABAC формата : Да
Параметр ReFrames формата : 14 кадров
Идентификатор кодека : V_MPEG4/ISO/AVC
Продолжительность : 2 ч. 11 м.
Битрейт : 2378 Кбит/сек
Ширина : 700 пикселей
Высота : 508 пикселей
Соотношение сторон : 3:2
Соотношение сторон в оригинале : 3:2
Режим частоты кадров : Постоянный
Частота кадров : 25,000 кадров/сек
Цветовое пространство : YUV
Субдискретизация насыщенности : 4:2:0
Битовая глубина : 8 бит
Тип развёртки : Прогрессивная
Бит/(Пиксели*Кадры) : 0.267
Размер потока : 2,13 Гбайт (89%)
Заголовок : Зеркало для героя_1987-DVDRip-AVC.KORSAR
Библиотека кодирования : x264 core 148 r2744kMod b97ae06
Настройки программы : cabac=1 / ref=14 / deblock=1:-2:-2 / analyse=0x3:0x133 / me=umh / subme=10 / psy=1 / fade_compensate=0.00 / psy_rd=1.05:0.10 / mixed_ref=1 / me_range=32 / chroma_me=1 / trellis=2 / 8x8dct=1 / cqm=0 / deadzone=21,11 / fast_pskip=0 / chroma_qp_offset=-3 / threads=12 / lookahead_threads=2 / sliced_threads=0 / nr=0 / decimate=0 / interlaced=0 / bluray_compat=0 / constrained_intra=0 / bframes=9 / b_pyramid=2 / b_adapt=2 / b_bias=0 / direct=3 / weightb=1 / open_gop=0 / weightp=2 / keyint=250 / keyint_min=25 / scenecut=40 / intra_refresh=0 / rc=2pass / mbtree=0 / bitrate=2378 / ratetol=1.0 / qcomp=0.63 / qpmin=0 / qpmax=39 / qpstep=4 / cplxblur=20.0 / qblur=0.5 / ip_ratio=1.20 / pb_ratio=1.30 / aq=2:1.00
Язык : English
Default : Да
Forced : Нет
Цветовой диапазон : Limited
Основные цвета : BT.601 PAL
Характеристики трансфера : BT.470 System B, BT.470 System G
Коэффициенты матрицы : BT.601
Аудио
Идентификатор : 2
Формат : AC-3
Формат/Информация : Audio Coding 3
Расширение режима : CM (complete main)
Параметр Endianness формата : Big
Идентификатор кодека : A_AC3
Продолжительность : 2 ч. 11 м.
Вид битрейта : Постоянный
Битрейт : 224 Кбит/сек
Каналы : 2 канала
Расположение каналов : Front: L R
Частота : 48,0 КГц
Частота кадров : 31,250 кадров/сек (1536 spf)
Битовая глубина : 16 бит
Метод сжатия : С потерями
Размер потока : 210 Мбайт (9%)
Язык : Russian
Default : Да
Forced : Нет



   Похожие торренты   Торрент   Размер 
В этой теме нет новых непрочитанных сообщений. Зеркало для героя (1987) DVDRip

22 | 1

2.17 ГБ

В этой теме нет новых непрочитанных сообщений. Руставели - Зеркало для героя (2017) MP3

151 | 12

77.42 МБ

В этой теме нет новых непрочитанных сообщений. Зеркало для героя (Гала-шоу с Оксаной Пушкиной) (2016) SATRip от Files-x

29 | 7

4.27 ГБ

В этой теме нет новых непрочитанных сообщений. Зеркало для героя [01-27] + Гала-шоу с Оксаной Пушкиной (2016) SATRip от Files-x

0 | 0

20.97 ГБ

В этой теме нет новых непрочитанных сообщений. Зеркало для героя [01-21] + Гала-шоу с Оксаной Пушкиной (2016) SATRip от Files-x

0 | 0

16.9 ГБ

В этой теме нет новых непрочитанных сообщений. Зеркало для героя [01-35] + Гала-шоу с Оксаной Пушкиной (2016) SATRip от Files-x

2 | 1

25.74 ГБ

В этой теме нет новых непрочитанных сообщений. Зеркало для героя [01-28] + Гала-шоу с Оксаной Пушкиной (2016) SATRip от Files-x

0 | 0

21.67 ГБ




Вы не можете начинать темы
Вы не можете отвечать на сообщения
Вы не можете редактировать свои сообщения
Вы не можете удалять свои сообщения
Вы не можете добавлять вложения

Перейти:  
 Вход
ppkBB3cker v.2 © 2008-2014 @ PPK
[ Time : 0.021s | 15 Queries | GZIP : Off ]

cron